Filmwünsche können bei uns im Forum abgegeben werden

Wir Speichern Nicht




 
 
 
Top Releases
Der.Duellist.2016.German.108...
Der.Duellist.2016.German.720...
Planet.der.Affen.Revolution....
The.LEGO.Batman.Movie.2017.M...
The.Mermaid.2016.MULTi.COMPL...
Valerian.Die.Stadt.der.tause...
X-Men.Erste.Entscheidung.201...
Spider.Man.Homecoming.2017.G...
Beta.Test.2016.MULTi.COMPLET...
Valerian.Die.Stadt.der.tause...

Cinedubs
Barry.Seal.Only.in.America.G...
Barry.Seal.Only.in.America.G...
Barry.Seal.Only.in.America.2...
Barry.Seal.Only.in.America.2...
The.Big.Sick.GERMAN.DL.MD.10...
The.Big.Sick.GERMAN.DL.MD.72...
Geostorm.German.DL.MD.720p.H...
American.Assassin.2017.Germa...
American.Assassin.2017.Germa...
Colossal.2016.German.AC3D.DL...

Neuerscheinungen 2016-17
The.Harvest.2013.German.DL.7...
The.Harvest.2013.German.DL.1...
Killing.Ground.2016.German.D...
Uncle.Nick.2015.German.DL.10...
Valerian.Die.Stadt.der.tause...
Wish.for.Christmas.Glaube.an...
Ihre.beste.Stunde.2016.Germa...
Wish.for.Christmas.Glaube.an...
Uncle.Nick.2015.German.720p....
Uncle.Nick.2015.German.DL.10...

XXX
InnocentHigh.17.11.13.Alyce....
FitnessRooms.17.11.13.Barbie...
HotGuysFuck.17.10.27.Dorian....
ElegantAnal.17.11.13.Henessy...
EvilAngel.Open.My.Ass.2.XXX....
AdultAuditions.E54.Perfect.P...
EternalDesire.17.11.11.Elina...
AdultAuditions.E51.Natural.T...
FullyClothedPissing.17.11.12...
AdultAuditions.E48.Juicy.Jen...
AdultAuditions.E55.Natural.T...
InfernalRestraints.17.11.10....
FakeTaxi.17.11.12.Pippa.Blon...
GirlsRimming.17.11.03.Sofi.G...
HotGuysFuck.17.11.10.Gio.Loc...
HuCows.17.10.14.Penny.Lee.Re...
ImmoralLive.17.11.11.Lady.De...
AdultAuditions.E44.Hot.Blond...
FakeAgent.17.11.13.Tina.Bell...
AdultAuditions.E47.Hot.Emo.P...

3D
Abenteuer.Safari.3D.Safari.P...
Die.Schneekoenigin.3.3D.2016...
Spider.Man.Homecoming.3D.201...
Terminator.2.Tag.der.Abrechn...
Terminator.2.Tag.der.Abrechn...
Terminator.2.Tag.der.Abrechn...
Spider.Man.Homecoming.3D.201...
The.Spacewalker.3D.2017.DL.c...
Ich.Einfach.unverbesserlich....
Ich.Einfach.unverbesserlich....
Jail.Bait.3D.2013.2D3D.MULTi...
Planet.der.Affen.Survival.20...
Planet.der.Affen.Survival.20...
Sword.Master.3D.2016.2D3D.GE...
Sword.Master.3D.2016.German....

Old_Stuff
Tomb.Raider.2001.DUAL.COMPLE...
Tomb.Raider.Die.Wiege.des.Le...
Party.Animals.3.German.AC3.7...
The.Rocky.Horror.Picture.Sho...
Die.Fliege.1986.German.DTS.1...
Mimic.2.2001.German.DD5.1D.D...
The.Tournament.UNCUT.2009.Ge...
Dr.House.S08.German.720p.Blu...
Dr.House.S07.German.720p.Blu...
Dr.House.S06.German.720p.Blu...
Dr.House.S05.German.720p.Blu...
Dr.House.S04.German.720p.Blu...
Dr.House.S03.German.720p.Blu...
Dr.House.S02.German.720p.Blu...
Dr.House.S01.German.720p.Blu...

Musik
Remote.Galaxy.by.Flint.Juven...
Trondheim.Solistene.Souvenir...
The.Beatles.Sgt.Peppers.Lone...
The.Prometheus.Dolby.Atmos.E...
R.E.M.OUT.OF.TIME.25th.Anniv...
The.Rolling.Stones.GRRR.BR-A...
Mussorgsky.Bilder.einer.Auss...
Yes.-.The.Yes.Album.Bluray-A...
Carlos.Heredia.Gypsy.Flamenc...
SPES.2014.complete.Bluray.un...
Carlos.Santana.Collection.19...
Pink.Floyd.The.Endless.River...
The.Hyperion.Romantic.Piano....
Putumayo.113.CD.Flac.lossles...
UFO.Let.It.Roll.Limited.Edit...

Filme
Terminator.2.Tag.der.Abrechn...
Prinzessin.Dornroeschen.1978...
Home.Guards.2015.German.1080...
Re.E137.Bernstein.Fieber.-.I...
Hercules.THEATRICAL.2014.Ger...
American.Horror.Story.S07.GE...
Preacher.S02D01-3.MULTi.COMP...
American.Horror.Story.S07.GE...
The.Shannara.Chronicles.S02....
The.Long.Road.Home.S01.GERMA...
Mr.Babysitter.1993.UNCUT.Ger...
Nachtlaerm.German.DL.1080p.B...
Hidden.in.the.Woods.2014.Ger...
Verborgene.Schoenheit.2016.G...
Ritter.Rost.2.Das.Schrottkom...
The.First.Avenger.Civil.War....
Der.Unbeugsame.1967.German.D...
Vehicle.19.2013.German.DL.10...
Bad.Moms.2016.German.DL.1080...
Newsies.Die.Zeitungsjungen.1...
Clueless.1995.German.AC3D.DL...
Mountain.Men.-.Ueberleben.in...
Bad.Medicine.1985.German.AC3...
Mountain.Men.-.Ueberleben.in...

 
 
The.Walking.Dead.S06.COMPLETE.UNCUT.GERMAN.AC3D.5.1.DL.720p.WEB-DL.x264-PRETAiL
Jahr: 2015
Genre: Drama | Horror
Sprache: Deutsch AC3 | Englisch AC3
Laufzeit: 1h je Folge
Bitrate: 3800 Kbps
Format: MKV
Größe: 2,1 GB je Folge
Release:

Beschreibung:

Die US-Serie "The Walking Dead" ist eine Adaption der gleichnamigen Comicbuchreihe von Robert Kirkman. Darin geht es um eine Gruppe von Menschen, die nach der Apokalypse als letzte Überlebende in einer Welt bestehen muss, die von Zombies bevölkert wird. Im Mittelpunkt der Serie steht der Polizist Rick Grimes, der für sich und seine Mitstreiter eine sichere Zuflucht sucht.

 

enthaltene Folgen (Staffel komplett):

The.Walking.Dead.S06E01.UNCUT.GERMAN.AC3D.5.1.DL.720p.WEB-DL.REPACK.x264-PRETAiL

The.Walking.Dead.S06E02.UNCUT.GERMAN.AC3D.5.1.DL.720p.WEB-DL.x264-PRETAiL

The.Walking.Dead.S06E03.UNCUT.GERMAN.AC3D.5.1.DL.720p.WEB-DL.x264-PRETAiL

The.Walking.Dead.S06E04.UNCUT.GERMAN.AC3D.5.1.DL.720p.WEB-DL.x264-PRETAiL

The.Walking.Dead.S06E05.UNCUT.GERMAN.AC3D.5.1.DL.720p.WEB-DL.x264-PRETAiL

The.Walking.Dead.S06E06.UNCUT.GERMAN.AC3D.5.1.DL.720p.WEB-DL.x264-PRETAiL

The.Walking.Dead.S06E07.UNCUT.GERMAN.AC3D.5.1.DL.720p.WEB-DL.x264-PRETAiL

The.Walking.Dead.S06E08.UNCUT.GERMAN.AC3D.5.1.DL.720p.WEB-DL.x264-PRETAiL

The.Walking.Dead.S06E09.UNCUT.GERMAN.AC3D.5.1.DL.720p.WEB-DL.x264-PRETAiL

The.Walking.Dead.S06E10.UNCUT.GERMAN.AC3D.5.1.DL.720p.WEB-DL.x264-PRETAiL

The.Walking.Dead.S06E11.UNCUT.GERMAN.AC3D.5.1.DL.720p.WEB-DL.x264-PRETAiL

The.Walking.Dead.S06E12.UNCUT.GERMAN.AC3D.5.1.DL.720p.WEB-DL.x264-PRETAiL

The.Walking.Dead.S06E13.UNCUT.GERMAN.AC3D.5.1.DL.720p.WEB-DL.x264-PRETAiL

The.Walking.Dead.S06E14.UNCUT.GERMAN.AC3D.5.1.DL.720p.WEB-DL.x264-PRETAiL

The.Walking.Dead.S06E15.UNCUT.GERMAN.AC3D.5.1.DL.720p.WEB-DL.x264-PRETAiL

The.Walking.Dead.S06E16.UNCUT.GERMAN.AC3D.5.1.DL.720p.WEB-DL.x264-PRETAiL NEU



General
Complete name                            : The.Walking.Dead.S06E01.GERMAN.AC3D.5.1.DL.720p.WEB-DL.x264-PRETAiL\wakin.dead.s06.e01.5.1.72-pret.mkv
Format                                   : Matroska
Format version                           : Version 2
File size                                : 2.14 GiB
Duration                                 : 1h 4mn
Overall bit rate                         : 4 732 Kbps
Movie name                               : PRETAiL
Encoded date                             : UTC 2015-10-12 21:08:55
Writing application                      : mkvmerge v3.4.0 ('Rapunzel') gebaut am May 15 2010 09:38:20
Writing library                          : libebml v0.8.0 + libmatroska v0.9.0

Video
ID                                       : 1
Format                                   : AVC
Format/Info                              : Advanced Video Codec
Format profile                           : High@L3.1
Format settings, CABAC                   : No
Format settings, ReFrames                : 2 frames
Codec ID                                 : V_MPEG4/ISO/AVC
Duration                                 : 1h 4mn
Bit rate                                 : 3 869 Kbps
Width                                    : 1 280 pixels
Height                                   : 718 pixels
Display aspect ratio                     : 16:9
Frame rate mode                          : Constant
Frame rate                               : 23.976 fps
Color space                              : YUV
Chroma subsampling                       : 4:2:0
Bit depth                                : 8 bits
Scan type                                : Progressive
Bits/(Pixel*Frame)                       : 0.176
Stream size                              : 1.75 GiB (82%)
Title                                    : 720p PRETAiL
Language                                 : English
Default                                  : Yes
Forced                                   : Yes
Color primaries                          : BT.709
Transfer characteristics                 : BT.709
Matrix coefficients                      : BT.709

Audio #1
ID                                       : 2
Format                                   : AC-3
Format/Info                              : Audio Coding 3
Mode extension                           : CM (complete main)
Format settings, Endianness              : Big
Codec ID                                 : A_AC3
Duration                                 : 1h 4mn
Bit rate mode                            : Constant
Bit rate                                 : 384 Kbps
Channel(s)                               : 6 channels
Channel positions                        : Front: L C R, Side: L R, LFE
Sampling rate                            : 48.0 KHz
Bit depth                                : 16 bits
Compression mode                         : Lossy
Stream size                              : 178 MiB (8%)
Title                                    : AC3 5.1 by PRETAiL
Language                                 : German
Default                                  : Yes
Forced                                   : Yes

Audio #2
ID                                       : 3
Format                                   : AC-3
Format/Info                              : Audio Coding 3
Mode extension                           : CM (complete main)
Format settings, Endianness              : Big
Codec ID                                 : A_AC3
Duration                                 : 1h 4mn
Bit rate mode                            : Constant
Bit rate                                 : 384 Kbps
Channel(s)                               : 6 channels
Channel positions                        : Front: L C R, Side: L R, LFE
Sampling rate                            : 48.0 KHz
Bit depth                                : 16 bits
Compression mode                         : Lossy
Stream size                              : 178 MiB (8%)
Language                                 : English
Default                                  : No
Forced                                   : No

Text #1
ID                                       : 4
Format                                   : UTF-8
Codec ID                                 : S_TEXT/UTF8
Codec ID/Info                            : UTF-8 Plain Text
Title                                    : SDH-Removed
Language                                 : English
Default                                  : No
Forced                                   : No

Text #2
ID                                       : 5
Format                                   : UTF-8
Codec ID                                 : S_TEXT/UTF8
Codec ID/Info                            : UTF-8 Plain Text
Title                                    : SDH
Language                                 : English
Default                                  : No
Forced                                   : No



Download:
Share-Online.biz Share-Online.bizShare-Online.bizShare-Online.biz | Uploaded.net Uploaded.netUploaded.netUploaded.net
 

Kommentare