Filecrypt zeigt vereinzelt Files als "n/a". Die Downloads sind trotzdem komplett.

DNS SERVER AENDERNum der staatlichen Zensur zu umgehen. Sollten wir von eurem Provider geseprrt werden, nutzt den TOR BROWSER oder ändert euren DNS SERVER.

Filmwünsche können bei uns im Forum abgegeben werden

Wir Speichern Nicht




 
 
 
Top Releases
Le.Jeu.Nichts.zu.verbergen.2...
Le.Jeu.Nichts.zu.verbergen.2...
Cam.2018.German.DL.1080p.WEB...
Cam.2018.German.DL.720p.WEB....
Teen.Titans.Go.To.the.Movies...
The.Ballad.of.Buster.Scruggs...
Teen.Titans.Go.To.the.Movies...
The.Ballad.of.Buster.Scruggs...
Logan.The.Wolverine.2017.NOI...
Mandy.2018.German.DL.1080p.B...

Cinedubs
Christopher.Robin.German.DL....
Christopher.Robin.German.DL....
A.Star.Is.Born.German.DL.AC3...
A.Star.Is.Born.German.DL.AC3...
Mission.Impossible.Fallout.G...
Mission.Impossible.Fallout.G...
Sicario.2.2018.German.DL.AC3...
Juliet.Naked.2018.GERMAN.DL....
Juliet.Naked.2018.GERMAN.DL....
10x10.2018.German.AC3D.DL.10...

Neuerscheinungen 2017-18
Night.Of.The.Demons.1988.DUA...
Africa.Addio.1966.DUAL.COMPL...
In.Darkness.2018.MULTI.COMPL...
Boarding.School.2018.COMPLET...
Immortal.Wars.Nur.der.Staerk...
Beautiful.People.2014.German...
Mission.Yeti.2017.German.DL....
Mission.Yeti.2017.German.720...
Boarding.School.2018.German....
Boarding.School.2018.German....

XXX
NetVideoGirls.18.10.23.Janey...
NHLPCentral.18.06.21.Brook.L...
LustyGrandmas.18.03.22.Marsh...
POVPornstars.18.10.30.Lila.M...
POVLife.18.10.29.Skylar.Vale...
NetGirl.18.10.17.Gemma.And.A...
NewSensations.18.10.29.Angel...
Nubiles.18.10.29.Cleo.Mijare...
OldYoungLesbianLove.18.10.29...
NHLPCentral.18.06.14.Honour....
NubileFilms.18.10.29.Riley.S...
LustyGrandmas.18.04.02.Sila....
PlayboyPlus.18.10.29.Jenessa...
Old-n-Young.18.10.27.Blue.Sk...
NewSensations.18.10.31.Emily...
OnlyBlowJob.18.10.04.Rose.XX...
PlayboyPlus.18.10.28.Playmat...
LustyGrandmas.18.04.08.Viol....
PixAndVideo.18.10.29.Marica....
Passion-HD.18.10.31.Megan.Wi...

3D
Die.Unglaublichen.2.2018.3D....
Skyscraper.3D.2018.MULTi.COM...
Ant-Man.And.The.Wasp.3D.2018...
Ant.Man.and.the.Wasp.3D.2018...
Die.Unglaublichen.2.3D.2018....
Die.Unglaublichen.2.2018.3D....
Die.Unglaublichen.2.2018.3D....
Sharknado.6.The.Last.One.3D....
Deep.Kleine.Helden.der.Tiefs...
Deep.3D.2017.MULTI.COMPLETE....
Detective.Dee.und.die.Legend...
Detective.Dee.und.die.Legend...
Skyscraper.3D.German.DL.AC3....
Ant-Man.and.the.Wasp.2018.3D...
Jurassic.World.Das.gefallene...

Old_Stuff
Detective.Dee.und.das.Geheim...
Detective.Dee.Und.Der.Fluch....
Ghost.Rider.Spirit.of.Vengea...
Species.IV.Das.Erwachen.2007...
Species.IV.Das.Erwachen.2007...
Hotel.Transsilvanien.2012.Ge...
The.Dead.2010.German.DL.1080...
The.Dead.2.India.2013.German...
Britney.Spears.Live.The.Femm...
Buffy.The.Vampire.Slayer.199...
IMAX.Ride.Around.The.World.2...
Schimanski.-.Duisburg.Ruhror...
Akte.X.S02.German.DTS.DL.108...
How.I.Met.Your.Mother.S02.Ge...
Akte.X.S01.German.DTS.DL.108...

Filme
Meine.Zeit.mit.Cezanne.2016....
Spider-Man.2.2004.UHD2BD.7.1...
Wara.No.Tate.Die.Gejagten.20...
Winged.Creatures.2008.German...
House.of.Good.and.Evil.2013....
Arctic.Blast.-.Wenn.Die.Welt...
Die.Pest.S01.D01-2.MULTi.COM...
Familiensache.1998.German.AC...
Joshua.Der.Erstgeborene.2007...
Die.eiserne.Maske.1962.UNCUT...
MotoGP.Moto2.Moto3.Saison.20...
Das.Boot.1981.GERMAN.DC.1080...
42.Die.wahre.Geschichte.eine...
Graceland.2012.German.1080p....
Horsehead.2014.German.DL.108...
Oliver.Twist.1948.German.AC3...
Gold.Diggers.-.Das.Geheimnis...
Der.Salamander.1981.German.A...
Revenge.2017.German.1080p.DT...
Der.Marsianer.Rettet.Mark.Wa...
Hereditary.Das.Vermaechtnis....
Rocky.1976.German.DL.DTS.Dub...
Scorpion.King.Das.Buch.der.S...
Das.Geheimniss.von.Marrowbon...

 
 
The.Blacklist.S03.COMPLETE.German.DL.1080p.BluRay.x264-iNTENTiON
Jahr: 2015
Genre: Krimi | Drama | Mystery
Sprache: Deutsch DTS | Englisch DTS
Laufzeit: 43min je Folge
Bitrate: 6000 Kbps
Format: MKV
Größe: 2,7 GB je Folge
Release:

Beschreibung:

In „The Blacklist“ steht der ehemalige Regierungsagent Raymond „Red“ Reddington (James Spader) im Zentrum, der Jahrzehnte lang der meistgesuchte Schwerverbrecher der Welt war. Red wird als früherer Mitarbeiter des militärischen Geheimdienstes beschrieben, der desertierte und sich jetzt als eine Art Dealmacher verdingt: Für Kriminelle fädelt er neue „Geschäftsmöglichkeiten“ ein und war unter dem Namen „The Concierge of Crime“ berühmt berüchtigt.

Nun bietet er überraschenderweise den staatlichen Strafverfolgungsbehörden seine Kooperation an. Dabei stellt er lediglich eine Bedingung: Er will nur mit der frischgebackenen FBI-Agentin Elizabeth Keen (Megan Boone) zusammenarbeiten. Liz hat gerade Quantico verlassen und tritt ihren ersten Tag beim FBI an. Als Angebot stellt Red in Aussicht den für tot gehaltenen Terroristen Ranko Zamani zu fassen.

 

enthaltene Folgen (Staffel komplett):

The.Blacklist.S03E01.Der.Troll.Farmer.Nr.38.GERMAN.DUBBED.DL.1080p.WebHD.x264-TVP 

The.Blacklist.S03E02.Marvin.Gerard.Nr.80.GERMAN.DUBBED.DL.1080p.WebHD.x264-TVP

The.Blacklist.S03E03.Eli.Matchett.Nr.72.GERMAN.DUBBED.DL.1080p.WebHD.x264-TVP 

The.Blacklist.S03E04.Der.Dschinn.Nr.43.GERMAN.DUBBED.DL.1080p.WebHD.x264-TVP

The.Blacklist.S03E05.Arioch.Cain.GERMAN.DUBBED.DL.1080p.WebHD.x264-TVP 

The.Blacklist.S03E06.Sir.Crispin.Crandall.GERMAN.DUBBED.DL.1080p.WebHD.x264-TVP

The.Blacklist.S03E07.Zal.Bin.Hasaan.Nr.31.GERMAN.DUBBED.DL.1080p.WebHD.x264-TVP 

The.Blacklist.S03E08.Koenige.der.Strasse.Nr.108.GERMAN.DUBBED.DL.1080p.WebHD.x264-TVP

The.Blacklist.S03E09.Der.Direktor.Nr.24.1.GERMAN.DUBBED.DL.1080p.WebHD.x264-TVP

The.Blacklist.S03E10.Der.Direktor.Nr.24.2.GERMAN.DUBBED.DL.1080p.WebHD.x264-TVP

The.Blacklist.S03E11.Gregory.Devry.Nr.95.GERMAN.DUBBED.DL.1080p.WebHD.x264-TVP

The.Blacklist.S03E12.Das.Femgericht.Nr.132.GERMAN.DUBBED.DL.1080p.WebHD.x264-TVP

The.Blacklist.S03E13.Alistair.Pitt.Nr.103.GERMAN.DUBBED.DL.1080p.WebHD.x264-TVP

The.Blacklist.S03E14.Lady.Ambrosia.Nr.77.GERMAN.DUBBED.DL.1080p.WebHD.x264-TVP

The.Blacklist.S03E15.Drexel.GERMAN.DUBBED.DL.1080p.WebHD.x264-TVP

The.Blacklist.S03E16.The.Caretaker.GERMAN.DUBBED.DL.1080p.WebHD.x264-TVP

The.Blacklist.S03E17.Mr.Solomon.GERMAN.DUBBED.DL.1080p.WebHD.x264-TVP

The.Blacklist.S03E18.Mr.Solomon.Nr.32.2.GERMAN.DUBBED.DL.1080p.WebHD.x264-TVP

The.Blacklist.S03E19.Cape.May.GERMAN.DUBBED.DL.1080p.WebHD.x264-TVP

The.Blacklist.S03E20.Das.Artax.Netzwerk.Nr.41.GERMAN.DUBBED.DL.1080p.WebHD.x264-TVP

The.Blacklist.S03E21.Susan.Hargrave.GERMAN.DUBBED.DL.1080p.WebHD.x264-TVP

The.Blacklist.S03E22.Alexander.Kirk.1.GERMAN.DUBBED.DL.1080p.WebHD.x264-TVP

The.Blacklist.S03E23.Alexander.Kirk.Conclusion.GERMAN.DUBBED.DL.1080p.WebHD.x264-TVP NEU



General
Complete name                            : The.Blacklist.S03E01.German.DL.1080p.BluRay.x264.RERiP-iNTENTiON\the.blacklist.s03e01.german.dl.1080p.bluray.x264.rerip-intention.mkv
Format                                   : Matroska
Format version                           : Version 2
File size                                : 2.77 GiB
Duration                                 : 43mn 6s
Overall bit rate                         : 9 207 Kbps
Writing application                      : mkvmerge v6.6.0 ('The Edge Of The In Between') built on Dec 1 2013 17:55:00
Writing library                          : libebml v1.3.0 + libmatroska v1.4.1

Video
ID                                       : 1
Format                                   : AVC
Format/Info                              : Advanced Video Codec
Format profile                           : High@L4.1
Format settings, CABAC                   : Yes
Format settings, ReFrames                : 4 frames
Codec ID                                 : V_MPEG4/ISO/AVC
Duration                                 : 43mn 6s
Bit rate                                 : 6 006 Kbps
Width                                    : 1 920 pixels
Height                                   : 1 080 pixels
Display aspect ratio                     : 16:9
Frame rate mode                          : Constant
Frame rate                               : 23.976 fps
Color space                              : YUV
Chroma subsampling                       : 4:2:0
Bit depth                                : 8 bits
Scan type                                : Progressive
Bits/(Pixel*Frame)                       : 0.121
Stream size                              : 1.81 GiB (65%)
Writing library                          : x264 core 148 r2705 3f5ed56
Encoding settings                        : cabac=1 / ref=4 / deblock=1:-3:-3 / analyse=0x3:0x133 / me=umh / subme=8 / psy=1 / psy_rd=1.00:0.15 / mixed_ref=1 / me_range=16 / chroma_me=1 / trellis=1 / 8x8dct=1 / cqm=0 / deadzone=21,11 / fast_pskip=0 / chroma_qp_offset=-3 / threads=12 / lookahead_threads=2 / sliced_threads=0 / nr=0 / decimate=1 / interlaced=0 / bluray_compat=0 / constrained_intra=0 / bframes=3 / b_pyramid=2 / b_adapt=2 / b_bias=0 / direct=3 / weightb=1 / open_gop=0 / weightp=2 / keyint=240 / keyint_min=24 / scenecut=40 / intra_refresh=0 / rc_lookahead=50 / rc=crf / mbtree=1 / crf=20.0 / qcomp=0.60 / qpmin=0 / qpmax=69 / qpstep=4 / ip_ratio=1.40 / aq=1:1.00
Language                                 : English
Default                                  : Yes
Forced                                   : No

Audio #1
ID                                       : 2
Format                                   : DTS
Format/Info                              : Digital Theater Systems
Mode                                     : 16
Format settings, Endianness              : Big
Codec ID                                 : A_DTS
Duration                                 : 43mn 6s
Bit rate mode                            : Constant
Bit rate                                 : 1 509 Kbps
Channel(s)                               : 6 channels
Channel positions                        : Front: L C R, Side: L R, LFE
Sampling rate                            : 48.0 KHz
Bit depth                                : 24 bits
Compression mode                         : Lossy
Stream size                              : 465 MiB (16%)
Language                                 : German
Default                                  : Yes
Forced                                   : No

Audio #2
ID                                       : 3
Format                                   : DTS
Format/Info                              : Digital Theater Systems
Mode                                     : 16
Format settings, Endianness              : Big
Codec ID                                 : A_DTS
Duration                                 : 43mn 6s
Bit rate mode                            : Constant
Bit rate                                 : 1 509 Kbps
Channel(s)                               : 6 channels
Channel positions                        : Front: L C R, Side: L R, LFE
Sampling rate                            : 48.0 KHz
Bit depth                                : 24 bits
Compression mode                         : Lossy
Stream size                              : 465 MiB (16%)
Language                                 : English
Default                                  : Yes
Forced                                   : No

Menu
00:00:00.000                             : en:00:00:00.000
00:03:51.440                             : en:00:03:51.440
00:08:02.357                             : en:00:08:02.357
00:18:17.930                             : en:00:18:17.930
00:24:18.165                             : en:00:24:18.165
00:29:19.591                             : en:00:29:19.591
00:34:51.339                             : en:00:34:51.339
00:42:29.005                             : en:00:42:29.005



Download:
Share-Online.biz Share-Online.bizShare-Online.bizShare-Online.biz
 

Kommentare