Filmwünsche können bei uns im Forum abgegeben werden

Wir Speichern Nicht




 
 
 
Top Releases
Der.Duellist.2016.German.108...
Der.Duellist.2016.German.720...
Planet.der.Affen.Revolution....
The.LEGO.Batman.Movie.2017.M...
The.Mermaid.2016.MULTi.COMPL...
Valerian.Die.Stadt.der.tause...
X-Men.Erste.Entscheidung.201...
Spider.Man.Homecoming.2017.G...
Beta.Test.2016.MULTi.COMPLET...
Valerian.Die.Stadt.der.tause...

Cinedubs
Barry.Seal.Only.in.America.G...
Barry.Seal.Only.in.America.G...
Barry.Seal.Only.in.America.2...
Barry.Seal.Only.in.America.2...
The.Big.Sick.GERMAN.DL.MD.10...
The.Big.Sick.GERMAN.DL.MD.72...
Geostorm.German.DL.MD.720p.H...
American.Assassin.2017.Germa...
American.Assassin.2017.Germa...
Colossal.2016.German.AC3D.DL...

Neuerscheinungen 2016-17
The.Harvest.2013.German.DL.7...
The.Harvest.2013.German.DL.1...
Killing.Ground.2016.German.D...
Uncle.Nick.2015.German.DL.10...
Valerian.Die.Stadt.der.tause...
Wish.for.Christmas.Glaube.an...
Ihre.beste.Stunde.2016.Germa...
Wish.for.Christmas.Glaube.an...
Uncle.Nick.2015.German.720p....
Uncle.Nick.2015.German.DL.10...

XXX
InnocentHigh.17.11.13.Alyce....
FitnessRooms.17.11.13.Barbie...
HotGuysFuck.17.10.27.Dorian....
ElegantAnal.17.11.13.Henessy...
EvilAngel.Open.My.Ass.2.XXX....
AdultAuditions.E54.Perfect.P...
EternalDesire.17.11.11.Elina...
AdultAuditions.E51.Natural.T...
FullyClothedPissing.17.11.12...
AdultAuditions.E48.Juicy.Jen...
AdultAuditions.E55.Natural.T...
InfernalRestraints.17.11.10....
FakeTaxi.17.11.12.Pippa.Blon...
GirlsRimming.17.11.03.Sofi.G...
HotGuysFuck.17.11.10.Gio.Loc...
HuCows.17.10.14.Penny.Lee.Re...
ImmoralLive.17.11.11.Lady.De...
AdultAuditions.E44.Hot.Blond...
FakeAgent.17.11.13.Tina.Bell...
AdultAuditions.E47.Hot.Emo.P...

3D
Abenteuer.Safari.3D.Safari.P...
Die.Schneekoenigin.3.3D.2016...
Spider.Man.Homecoming.3D.201...
Terminator.2.Tag.der.Abrechn...
Terminator.2.Tag.der.Abrechn...
Terminator.2.Tag.der.Abrechn...
Spider.Man.Homecoming.3D.201...
The.Spacewalker.3D.2017.DL.c...
Ich.Einfach.unverbesserlich....
Ich.Einfach.unverbesserlich....
Jail.Bait.3D.2013.2D3D.MULTi...
Planet.der.Affen.Survival.20...
Planet.der.Affen.Survival.20...
Sword.Master.3D.2016.2D3D.GE...
Sword.Master.3D.2016.German....

Old_Stuff
Tomb.Raider.2001.DUAL.COMPLE...
Tomb.Raider.Die.Wiege.des.Le...
Party.Animals.3.German.AC3.7...
The.Rocky.Horror.Picture.Sho...
Die.Fliege.1986.German.DTS.1...
Mimic.2.2001.German.DD5.1D.D...
The.Tournament.UNCUT.2009.Ge...
Dr.House.S08.German.720p.Blu...
Dr.House.S07.German.720p.Blu...
Dr.House.S06.German.720p.Blu...
Dr.House.S05.German.720p.Blu...
Dr.House.S04.German.720p.Blu...
Dr.House.S03.German.720p.Blu...
Dr.House.S02.German.720p.Blu...
Dr.House.S01.German.720p.Blu...

Musik
Remote.Galaxy.by.Flint.Juven...
Trondheim.Solistene.Souvenir...
The.Beatles.Sgt.Peppers.Lone...
The.Prometheus.Dolby.Atmos.E...
R.E.M.OUT.OF.TIME.25th.Anniv...
The.Rolling.Stones.GRRR.BR-A...
Mussorgsky.Bilder.einer.Auss...
Yes.-.The.Yes.Album.Bluray-A...
Carlos.Heredia.Gypsy.Flamenc...
SPES.2014.complete.Bluray.un...
Carlos.Santana.Collection.19...
Pink.Floyd.The.Endless.River...
The.Hyperion.Romantic.Piano....
Putumayo.113.CD.Flac.lossles...
UFO.Let.It.Roll.Limited.Edit...

Filme
Terminator.2.Tag.der.Abrechn...
Prinzessin.Dornroeschen.1978...
Home.Guards.2015.German.1080...
Re.E137.Bernstein.Fieber.-.I...
Hercules.THEATRICAL.2014.Ger...
American.Horror.Story.S07.GE...
Preacher.S02D01-3.MULTi.COMP...
American.Horror.Story.S07.GE...
The.Shannara.Chronicles.S02....
The.Long.Road.Home.S01.GERMA...
Mr.Babysitter.1993.UNCUT.Ger...
Nachtlaerm.German.DL.1080p.B...
Hidden.in.the.Woods.2014.Ger...
Verborgene.Schoenheit.2016.G...
Ritter.Rost.2.Das.Schrottkom...
The.First.Avenger.Civil.War....
Der.Unbeugsame.1967.German.D...
Vehicle.19.2013.German.DL.10...
Bad.Moms.2016.German.DL.1080...
Newsies.Die.Zeitungsjungen.1...
Clueless.1995.German.AC3D.DL...
Mountain.Men.-.Ueberleben.in...
Bad.Medicine.1985.German.AC3...
Mountain.Men.-.Ueberleben.in...

 
 
The.Walking.Dead.S04.UNCUT.COMPLETE.GERMAN.5.1.DL.AC3.720p.BDRiP.x264-TvR
Jahr: 2013
Genre: Drama | Horror
Sprache: Deutsch AC3 | Englisch AC3
Laufzeit: 42min je Folge
Bitrate: 7700 Kbps
Format: MKV
Größe: 2,5 GB je Folge
Release:

Beschreibung:

Die US-Serie "The Walking Dead" ist eine Adaption der gleichnamigen Comicbuchreihe von Robert Kirkman. Darin geht es um eine Gruppe von Menschen, die nach der Apokalypse als letzte Überlebende in einer Welt bestehen muss, die von Zombies bevölkert wird. Im Mittelpunkt der Serie steht der Polizist Rick Grimes, der für sich und seine Mitstreiter eine sichere Zuflucht sucht.



General
Complete name                            : The.Walking.Dead.S04E01.Kein.Tag.ohne.Unglueck.UNCUT.GERMAN.5.1.DL.AC3.720p.BDRiP.x264-TvR\tvr-twd-s04e01-720p.mkv
Format                                   : Matroska
Format version                           : Version 4 / Version 2
File size                                : 2.62 GiB
Duration                                 : 41mn 21s
Overall bit rate                         : 9 079 Kbps
Encoded date                             : UTC 2014-11-16 09:31:26
Writing application                      : mkvmerge v7.0.0 ('Where We Going') 32bit built on Jun  9 2014 15:08:34
Writing library                          : libebml v1.3.0 + libmatroska v1.4.1
DURATION                                 : 00:13:47.830000000
NUMBER_OF_FRAMES                         : 3
NUMBER_OF_BYTES                          : 12731
_STATISTICS_WRITING_APP                  : mkvmerge v7.0.0 ('Where We Going') 32bit built on Jun  9 2014 15:08:34
_STATISTICS_WRITING_DATE_UTC             : 2014-11-16 09:31:26
_STATISTICS_TAGS                         : BPS DURATION NUMBER_OF_FRAMES NUMBER_OF_BYTES
Attachment                               : Yes

Video
ID                                       : 1
Format                                   : AVC
Format/Info                              : Advanced Video Codec
Format profile                           : High@L4.1
Format settings, CABAC                   : Yes
Format settings, ReFrames                : 9 frames
Codec ID                                 : V_MPEG4/ISO/AVC
Duration                                 : 41mn 21s
Bit rate                                 : 7 783 Kbps
Width                                    : 1 280 pixels
Height                                   : 720 pixels
Display aspect ratio                     : 16:9
Frame rate mode                          : Constant
Frame rate                               : 25.000 fps
Color space                              : YUV
Chroma subsampling                       : 4:2:0
Bit depth                                : 8 bits
Scan type                                : Progressive
Bits/(Pixel*Frame)                       : 0.338
Stream size                              : 2.20 GiB (84%)
Title                                    : The Walking Dead - S04E01 - Kein Tag ohne Unglück
Writing library                          : x264 core 142 r2431 ac76440
Encoding settings                        : cabac=1 / ref=9 / deblock=1:-1:-1 / analyse=0x3:0x113 / me=umh / subme=9 / psy=1 / psy_rd=1.20:0.00 / mixed_ref=1 / me_range=32 / chroma_me=1 / trellis=2 / 8x8dct=1 / cqm=0 / deadzone=21,11 / fast_pskip=1 / chroma_qp_offset=-2 / threads=12 / lookahead_threads=1 / sliced_threads=0 / nr=0 / decimate=0 / interlaced=0 / bluray_compat=0 / constrained_intra=0 / bframes=5 / b_pyramid=2 / b_adapt=2 / b_bias=0 / direct=3 / weightb=1 / open_gop=0 / weightp=2 / keyint=250 / keyint_min=25 / scenecut=40 / intra_refresh=0 / rc_lookahead=50 / rc=2pass / mbtree=1 / bitrate=7783 / ratetol=1.0 / qcomp=0.80 / qpmin=10 / qpmax=51 / qpstep=4 / cplxblur=20.0 / qblur=0.5 / vbv_maxrate=38000 / vbv_bufsize=38000 / nal_hrd=none / filler=0 / ip_ratio=1.20 / aq=1:0.60
Language                                 : English
Default                                  : Yes
Forced                                   : No
Color primaries                          : BT.709
Transfer characteristics                 : BT.709
Matrix coefficients                      : BT.709
DURATION                                 : 00:41:21.880000000
NUMBER_OF_FRAMES                         : 62047
NUMBER_OF_BYTES                          : 2412219390
_STATISTICS_WRITING_APP                  : mkvmerge v7.0.0 ('Where We Going') 32bit built on Jun  9 2014 15:08:34
_STATISTICS_WRITING_DATE_UTC             : 2014-11-16 09:31:26
_STATISTICS_TAGS                         : BPS DURATION NUMBER_OF_FRAMES NUMBER_OF_BYTES

Audio #1
ID                                       : 2
Format                                   : AC-3
Format/Info                              : Audio Coding 3
Mode extension                           : CM (complete main)
Format settings, Endianness              : Big
Codec ID                                 : A_AC3
Duration                                 : 41mn 21s
Bit rate mode                            : Constant
Bit rate                                 : 640 Kbps
Channel(s)                               : 6 channels
Channel positions                        : Front: L C R, Side: L R, LFE
Sampling rate                            : 48.0 KHz
Bit depth                                : 16 bits
Compression mode                         : Lossy
Stream size                              : 189 MiB (7%)
Title                                    : AC3 5.1 @ 640 kbps
Language                                 : German
Default                                  : Yes
Forced                                   : No

Audio #2
ID                                       : 3
Format                                   : AC-3
Format/Info                              : Audio Coding 3
Mode extension                           : CM (complete main)
Format settings, Endianness              : Big
Codec ID                                 : A_AC3
Duration                                 : 41mn 21s
Bit rate mode                            : Constant
Bit rate                                 : 640 Kbps
Channel(s)                               : 6 channels
Channel positions                        : Front: L C R, Side: L R, LFE
Sampling rate                            : 48.0 KHz
Bit depth                                : 16 bits
Compression mode                         : Lossy
Stream size                              : 189 MiB (7%)
Title                                    : AC3 5.1 @ 640 kbps
Language                                 : English
Default                                  : No
Forced                                   : No

Text #1
ID                                       : 4
Format                                   : PGS
Muxing mode                              : zlib
Codec ID                                 : S_HDMV/PGS
Codec ID/Info                            : The same subtitle format used on BDs/HD-DVDs
Title                                    : Forced PGS
Language                                 : German
Default                                  : Yes
Forced                                   : Yes

Text #2
ID                                       : 5
Format                                   : VobSub
Muxing mode                              : zlib
Codec ID                                 : S_VOBSUB
Codec ID/Info                            : The same subtitle format used on DVDs
Title                                    : Forced VobSub
Language                                 : German
Default                                  : No
Forced                                   : Yes

Text #3
ID                                       : 6
Format                                   : PGS
Muxing mode                              : zlib
Codec ID                                 : S_HDMV/PGS
Codec ID/Info                            : The same subtitle format used on BDs/HD-DVDs
Title                                    : Full PGS
Language                                 : German
Default                                  : No
Forced                                   : No

Text #4
ID                                       : 7
Format                                   : VobSub
Muxing mode                              : zlib
Codec ID                                 : S_VOBSUB
Codec ID/Info                            : The same subtitle format used on DVDs
Title                                    : Full VobSub
Language                                 : German
Default                                  : No
Forced                                   : No

Text #5
ID                                       : 8
Format                                   : PGS
Muxing mode                              : zlib
Codec ID                                 : S_HDMV/PGS
Codec ID/Info                            : The same subtitle format used on BDs/HD-DVDs
Title                                    : Full PGS
Language                                 : English
Default                                  : No
Forced                                   : No

Text #6
ID                                       : 9
Format                                   : VobSub
Muxing mode                              : zlib
Codec ID                                 : S_VOBSUB
Codec ID/Info                            : The same subtitle format used on DVDs
Title                                    : Full VobSub
Language                                 : English
Default                                  : No
Forced                                   : No

Menu
00:00:00.000                             : en:00:00:00.000
00:02:14.720                             : en:00:02:14.720
00:13:50.000                             : en:00:13:50.000
00:20:38.760                             : en:00:20:38.760
00:25:37.560                             : en:00:25:37.560
00:32:51.240                             : en:00:32:51.240
00:40:37.400                             : en:00:40:37.400



Download:
Share-Online.biz Share-Online.bizShare-Online.bizShare-Online.biz | Uploaded.net Uploaded.netUploaded.netUploaded.net
 

Kommentare