HD-AREA wünscht Euch eine besinnliche Weihnachtszeit ;)

DNS SERVER AENDERNum der staatlichen Zensur zu umgehen. Sollten wir von eurem Provider geseprrt werden, nutzt den TOR BROWSER oder ändert euren DNS SERVER.

Filmwünsche können bei uns im Forum abgegeben werden

Wir Speichern Nicht




 
 
 
Top Releases
Braven.2018.GERMAN.DL.1080p....
Braven.2018.GERMAN.720p.BluR...
Mary.und.die.Blume.der.Hexen...
Mary.und.die.Blume.der.Hexen...
Braven.2018.MULTI.COMPLETE.B...
Paradox.Kill.Zone.Bangkok.20...
Mary.und.die.Blume.der.Hexen...
The.Bouncer.2018.German.DL.1...
Kodachrome.2017.German.AC3D....
Operation.Finale.2018.German...

Cinedubs
Venom.German.DL.AC3.Dubbed.1...
Venom.2018.German.AC3D.5.1.D...
Venom.2018.German.AC3D.5.1.D...
Das.krumme.Haus.2017.GERMAN....
Das.krumme.Haus.2017.GERMAN....
I.Still.See.You.Sie.lassen.d...
I.Still.See.You.Sie.lassen.d...
Braven.2018.German.AC3D.DL.1...
Braven.2018.German.AC3D.DL.7...
Smallfoot.Ein.eisigartiges.A...

Neuerscheinungen 2017-18
Das.Grab.der.Lygeia.The.Tomb...
Jesse.James.Mann.ohne.Gesetz...
Robur.Der.Herr.der.sieben.Ko...
Bleeder.1999.MULTi.COMPLETE....
Hoere.die.Stille.Der.Schreck...
Die.Supermonster.und.der.Wun...
Die.Supermonster.und.der.Wun...
Zoe.und.Raven.Es.weihnachtet...
Zoe.und.Raven.Es.weihnachtet...
Even.Lovers.Get.the.Blues.20...

XXX
Deep.Teen.Throat.17.XXX.1080...
Deep.Teen.Throat.17.XXX.720p...
GirlsOutWest.18.12.02.Daliah...
GirlsWay.18.12.02.Kenna.Jame...
ATKGirlfriends.18.12.03.Nikk...
GirlsWay.18.12.03.Zoey.Foxx....
FitnessRooms.18.12.03.Ashley...
GroupSexGames.18.11.25.Ann.M...
ATKHairy.18.12.03.Isabel.Ste...
GermanGooGirls.18.12.02.Ria....
GirlsGoneWild.18.11.29.Lexi....
Fitting-Room.18.12.01.Little...
ATKHairy.18.12.02.Pearl.Sage...
GirlsOutWest.18.12.03.Tash.T...
FatManFuck.17.09.22.Sophia.X...
FemJoy.18.12.01.Sasha.C.An.A...
FatManFuck.17.09.22.Skyler.S...
FamilyLust.18.11.24.Keilani....
GirlsGonePink.18.12.03.Madis...
GirlsGoneWild.18.11.26.Eden....

3D
Gans.im.Glueck.3D.2018.MULTi...
The.Art.of.Flight.3D.2011.Ge...
The.End.Of.The.World.3D.2010...
The.First.Avenger.Civil.War....
Die.Unglaublichen.2.2018.3D....
Skyscraper.3D.2018.MULTi.COM...
Ant-Man.And.The.Wasp.3D.2018...
Ant.Man.and.the.Wasp.3D.2018...
Die.Unglaublichen.2.3D.2018....
Die.Unglaublichen.2.2018.3D....
Die.Unglaublichen.2.2018.3D....
Sharknado.6.The.Last.One.3D....
Deep.Kleine.Helden.der.Tiefs...
Deep.3D.2017.MULTI.COMPLETE....
Detective.Dee.und.die.Legend...

Old_Stuff
Akte.X.S04.German.DTS.DL.108...
Akte.X.S03.German.DTS.DL.108...
Dunkirk.1958.COMPLETE.BLURAY...
Das.Wunder.von.Manhattan.199...
The.Amazing.Spiderman.2.Rise...
Rise.of.the.Predator.2014.Ge...
Detective.Dee.und.das.Geheim...
Detective.Dee.Und.Der.Fluch....
Ghost.Rider.Spirit.of.Vengea...
Species.IV.Das.Erwachen.2007...
Species.IV.Das.Erwachen.2007...
Hotel.Transsilvanien.2012.Ge...
The.Dead.2010.German.DL.1080...
The.Dead.2.India.2013.German...
Britney.Spears.Live.The.Femm...

Filme
Die.Konferenz.Wie.der.Holoca...
Die.Kleinen.und.die.Boesen.2...
Zombie.Strippers.2008.German...
Superman.1978.German.AC3.DL....
Kraftwerk.Pop.Art.2013.Germa...
Magda.Goebbels.Hitlers.First...
JFK.Der.letzte.Tag.2017.Germ...
Next.Door.Zur.Hoelle.mit.den...
Das.Ding.aus.einer.anderen.W...
Blindspot.S03.COMPLETE.Germa...
Blindspot.S03.COMPLETE.Germa...
Die.Rueckkehr.der.Maerchenbr...
Madman.1981.German.DL.1080p....
Pony.Express.1953.German.DL....
Pony.Express.1953.German.720...
Mystic.River.2003.German.DL....
Ray.Donovan.S06.GERMAN.DUBBE...
Ray.Donovan.S06.GERMAN.DUBBE...
Bleeder.1999.German.720p.Blu...
Paratrooper.GERMAN.1988.DL.7...
American.Horror.Story.S08.GE...
American.Horror.Story.S08.GE...
Quantico.S03.GERMAN.DUBBED.7...
Outlander.S04.German.DD51.DL...

 
 
The.Flash.S02.COMPLETE.German.DL.1080p.BluRay.x264-RWP
Jahr: 2015
Genre: Action | Abenteuer | Drama
Sprache: Deutsch AC3 | Englisch DTS
Laufzeit: 42min je Folge
Bitrate: 6900 Kbps
Format: MKV
Größe: 2,7 GB je Folge
Release:

Beschreibung:

Vor vielen Jahren erlebte der junge Barry Allen (G. Gustin) Furchtbares: ein mysteriöser Killer tötete seine Mutter und machte seinen Vater dafür verantwortlich. Entschlossen den Killer zu finden und seinen Vater rein zu waschen, schließt er sich der Polizei von Central City an – als Forensiker. Nachdem er in Starling City Arrow (S. Amell) bei der Ermittlung in einem Fall half, macht er sich in den heimischen STAR Labs erneut an die Arbeit, als ein Blitzeinschlag sein Leben fast beendet und ihn ins Koma schickt. Neun Monate später wacht er auf und ist nicht mehr derselbe. Er besitzt die Superkraft der Geschwindigkeit. Und diese will er nun einsetzen. Unterstützt von seinen Freunden Caitlin (D. Panabaker) und Cisco (C. Valdes) nimmt er sich den Fall seines Vaters neu vor – und viele andere Fälle, denn seit dem Blitzeinschlag vor neun Monaten häufen sich die Verbrechen übernatürlicher Natur …



General
Complete name                            : The.Flash.S02E01.German.DL.1080p.BluRay.x264-RWP\the.flash.s02e01.german.dl.1080p.bluray.x264-rwp.mkv
Format                                   : Matroska
Format version                           : Version 4 / Version 2
File size                                : 2.75 GiB
Duration                                 : 42mn 30s
Overall bit rate                         : 9 273 Kbps
Encoded date                             : UTC 2016-10-27 13:27:13
Writing application                      : mkvmerge v8.3.0 ('Over the Horizon') 64bit
Writing library                          : libebml v1.3.1 + libmatroska v1.4.2
DURATION                                 : 00:35:22.412000000
NUMBER_OF_FRAMES                         : 4
NUMBER_OF_BYTES                          : 114
_STATISTICS_WRITING_APP                  : mkvmerge v8.3.0 ('Over the Horizon') 64bit
_STATISTICS_WRITING_DATE_UTC             : 2016-10-27 13:27:13
_STATISTICS_TAGS                         : BPS DURATION NUMBER_OF_FRAMES NUMBER_OF_BYTES

Video
ID                                       : 1
Format                                   : AVC
Format/Info                              : Advanced Video Codec
Format profile                           : High@L4.1
Format settings, CABAC                   : Yes
Format settings, ReFrames                : 4 frames
Codec ID                                 : V_MPEG4/ISO/AVC
Duration                                 : 42mn 30s
Bit rate                                 : 6 940 Kbps
Width                                    : 1 920 pixels
Height                                   : 1 080 pixels
Display aspect ratio                     : 16:9
Frame rate mode                          : Constant
Frame rate                               : 23.976 fps
Color space                              : YUV
Chroma subsampling                       : 4:2:0
Bit depth                                : 8 bits
Scan type                                : Progressive
Bits/(Pixel*Frame)                       : 0.140
Stream size                              : 2.06 GiB (75%)
Writing library                          : x264 core 148 r2705 3f5ed56
Encoding settings                        : cabac=1 / ref=4 / deblock=1:-3:-3 / analyse=0x3:0x133 / me=umh / subme=8 / psy=1 / psy_rd=1.00:0.15 / mixed_ref=1 / me_range=16 / chroma_me=1 / trellis=1 / 8x8dct=1 / cqm=0 / deadzone=21,11 / fast_pskip=0 / chroma_qp_offset=-3 / threads=8 / lookahead_threads=1 / sliced_threads=0 / nr=0 / decimate=1 / interlaced=0 / bluray_compat=0 / constrained_intra=0 / bframes=3 / b_pyramid=2 / b_adapt=2 / b_bias=0 / direct=3 / weightb=1 / open_gop=0 / weightp=2 / keyint=250 / keyint_min=23 / scenecut=40 / intra_refresh=0 / rc_lookahead=40 / rc=crf / mbtree=1 / crf=20.0 / qcomp=0.60 / qpmin=0 / qpmax=69 / qpstep=4 / ip_ratio=1.40 / aq=1:1.00
Default                                  : Yes
Forced                                   : No

Audio #1
ID                                       : 2
Format                                   : AC-3
Format/Info                              : Audio Coding 3
Mode extension                           : CM (complete main)
Format settings, Endianness              : Big
Codec ID                                 : A_AC3
Duration                                 : 42mn 30s
Bit rate mode                            : Constant
Bit rate                                 : 640 Kbps
Channel(s)                               : 6 channels
Channel positions                        : Front: L C R, Side: L R, LFE
Sampling rate                            : 48.0 KHz
Bit depth                                : 16 bits
Compression mode                         : Lossy
Stream size                              : 195 MiB (7%)
Language                                 : German
Default                                  : Yes
Forced                                   : No

Audio #2
ID                                       : 3
Format                                   : DTS
Format/Info                              : Digital Theater Systems
Mode                                     : 16
Format settings, Endianness              : Big
Codec ID                                 : A_DTS
Duration                                 : 42mn 30s
Bit rate mode                            : Constant
Bit rate                                 : 1 509 Kbps
Channel(s)                               : 6 channels
Channel positions                        : Front: L C R, Side: L R, LFE
Sampling rate                            : 48.0 KHz
Bit depth                                : 16 bits
Compression mode                         : Lossy
Stream size                              : 459 MiB (16%)
Language                                 : English
Default                                  : No
Forced                                   : No

Text
ID                                       : 4
Format                                   : UTF-8
Codec ID                                 : S_TEXT/UTF8
Codec ID/Info                            : UTF-8 Plain Text
Language                                 : German
Default                                  : Yes
Forced                                   : Yes

Menu
00:00:00.000                             : en:00:00:00.000
00:01:02.854                             : en:00:01:02.854
00:03:42.514                             : en:00:03:42.514
00:11:54.672                             : en:00:11:54.672
00:16:35.411                             : en:00:16:35.411
00:22:42.653                             : en:00:22:42.653
00:31:18.502                             : en:00:31:18.502
00:35:26.750                             : en:00:35:26.750
00:42:01.728                             : en:00:42:01.728



Download:
Share-Online.biz Share-Online.bizShare-Online.bizShare-Online.biz
 

Kommentare