DNS SERVER AENDERNum der staatlichen Zensur zu umgehen. Sollten wir von eurem Provider geseprrt werden, nutzt den TOR BROWSER oder ändert euren DNS SERVER.

Filmwünsche können bei uns im Forum abgegeben werden

Wir Speichern Nicht




 
 
 
Top Releases
The.Seagull.Eine.unerhoerte....
Racer.and.the.Jailbird.2017....
Jurassic.World.2.Das.gefalle...
3.Tage.in.Quiberon.2018.GERM...
3.Tage.in.Quiberon.2018.GERM...
Norman.2016.German.AC3D.DL.1...
Wo.steckt.Sidney.Hall.2017.G...
Chappie.2015.German.AC3.DL.1...
Solo.A.Star.Wars.Story.2018....
Der.Buchladen.der.Florance.G...

Cinedubs
Hotel.Transsilvanien.3.Ein.M...
Hotel.Transsilvanien.3.Ein.M...
The.Seagull.Eine.unerhoerte....
The.Seagull.Eine.unerhoerte....
First.Reformed.2017.German.D...
Mamma.Mia.2.Here.We.Go.Again...
First.Reformed.German.DL.AC3...
The.First.Purge.2018.German....
No.Way.Out.Gegen.die.Flammen...
First.Reformed.German.DL.AC3...

Neuerscheinungen 2017-18
Mom.and.Dad.2017.MULTI.COMPL...
The.Asian.Connection.2016.CO...
Mom.and.Dad.2017.GERMAN.720p...
Solo.A.Star.Wars.Story.2018....
3.Tage.in.Quiberon.2018.GERM...
The.Asian.Connection.2016.GE...
The.Asian.Connection.2016.GE...
Sharknado.6.The.Last.One.201...
Sharknado.6.The.Last.One.201...
Mom.and.Dad.2017.German.AC3....

XXX
PropertySex.18.09.07.Vina.Sk...
PornstarPlatinum.18.09.09.Av...
PublicPickUps.18.09.10.Lucia...
PremiumBukkake.18.09.07.Cami...
Pure-BBW.18.07.26.Anal.Sex.I...
RKPrime.18.09.10.Jynx.Maze.A...
RealGirlsGoneBad.18.09.01.Se...
PremiumBukkake.18.09.05.Cami...
PornMegaLoad.18.09.09.Rachel...
PornstarPlatinum.18.09.10.Br...
Pure-BBW.18.08.02.Mermaid.Bb...
Pure-BBW.18.09.06.Tattooed.S...
Pure-BBW.18.08.09.Redhead.Ss...
Pure-BBW.18.08.30.Sensual.Ne...
PureMature.18.09.07.Isabelle...
Pure-BBW.18.08.23.Oiled.Up.A...
Pure-BBW.18.08.16.Oiling.Up....
Private.Tropical.29.Sluts.An...
RealWifeStories.18.09.09.Lel...
PremiumBukkake.18.08.24.Jime...

3D
Sharknado.6.The.Last.One.3D....
Solo.A.Star.Wars.Story.3D.20...
Solo.A.Star.Wars.Story.3D.20...
Die.Biene.Maja.2.Die.Honigsp...
Avengers.Infinity.War.3D.201...
Avengers.Infinity.War.3D.201...
Rampage.Big.Meets.Bigger.3D....
Rampage.Big.Meets.Bigger.3D....
Rampage.Big.Meets.Bigger.3D....
Winter.Games.3D.2013.DUAL.CO...
Tomb.Raider.3D.2018.German.7...
Rampage.Big.Meets.Bigger.3D....
Rampage.Big.Meets.Bigger.3D....
Tomb.Raider.3D.2018.MULTi.CO...
Pacific.Rim.Uprising.3D.2018...

Old_Stuff
Schimanski.-.Duisburg.Ruhror...
Akte.X.S02.German.DTS.DL.108...
How.I.Met.Your.Mother.S02.Ge...
Akte.X.S01.German.DTS.DL.108...
Den.Himmel.gibts.echt.DL.108...
Vikings.S02.German.DL.1080p....
Be.Kind.Rewind.Abgedreht.200...
Be.Kind.Rewind.Abgedreht.200...
Dracula.The.Dark.Lord.2012.G...
21.2008.German.DL.1080p.BluR...
Achtung.fertig.WK.Swissgerma...
The.Ouija.Exorcism.2015.MULT...
Meine.liebe.Rabenmutter.germ...
Da.Vincis.Demons.S01.Complet...
Eragon.Das.Vermaechtnis.der....

Filme
Tanz.der.Teufel.1981.UNCUT.R...
Tao.Jie.Ein.einfaches.Leben....
Taped.2012.GERMAN.1080p.HDTV...
Arrow.S06.GERMAN.DL.1080p.HD...
Arrow.S06.GERMAN.DL.720p.HDT...
Taras.Bulba.1962.GERMAN.AC3D...
Better.Call.Saul.S04.German....
Die.Simpsons.S29.GERMAN.DUBB...
Power.2014.S05.German.DL.DUB...
Power.2014.S05.German.DL.DUB...
The.Deuce.S02.GERMAN.DL.1080...
The.Deuce.S02.GERMAN.DL.720p...
Taste.the.Waste.2010.German....
Taste.of.Money.Die.Macht.der...
Tasmanian.Devils.Die.Jagd.ha...
Legends.of.Tomorrow.S03.Germ...
Legends.of.Tomorrow.S03.GERM...
Pater.Brown.-.Er.kanns.nicht...
Jumanji.4K.Remastered.1995.G...
X.Men.Der.letzte.Widerstand....
No.Good.Deed.2002.GERMAN.DL....
Scum.-.Abschaum.1979.German....
The.Big.Bang.Theory.S11.Germ...
The.Big.Bang.Theory.S11.Germ...

 
 
Orange.is.the.New.Black.S04.COMPLETE.German.DL.Dubbed.720p.WebHD.x264-SENATiON
Jahr: 2016
Genre: Komödie | Krimi | Drama
Sprache: Deutsch AC3 | Englisch AC3
Laufzeit: 53min je Folge
Bitrate: 3800 Kbps
Format: MKV
Größe: 1,8 GB je Folge
Release:

Beschreibung:

Die amerikanische Dramaserie „Orange is the New Black“ beruht auf dem Buch „Orange Is the New Black: My Year in a Women’s Prison“ von Piper Kerman. Sie beschreibt darin ihre einjährige Haftstrafe in einem Minimum-Sicherheitsgefängnis in Connecticut. Kerman war als künstlerische und rebellische Studentin durch ihr Umfeld in einen kleinen Drogenschmuggel- und Geldwäschering gerutscht. Zehn Jahre später, längst in einem anderen Lebensabschnitt angekommen und als Public-Realtions-Managerin für Wohltätigkeitsorganisationen tätig, stand schließlich die Polizei vor Kermans Tür.



General
Complete name                            : Orange.is.the.New.Black.S04E01.German.DL.Dubbed.720p.WebHD.x264-SENATiON\senation-orangeisthenewblack.s04e01.720p.mkv
Format                                   : Matroska
Format version                           : Version 4 / Version 2
File size                                : 1.77 GiB
Duration                                 : 53mn 37s
Overall bit rate                         : 4 731 Kbps
Encoded date                             : UTC 2016-06-17 08:12:38
Writing application                      : mkvmerge v9.1.0 ('Little Earthquakes') 64bit
Writing library                          : libebml v1.3.3 + libmatroska v1.4.4
DURATION                                 : 00:53:37.408000000
NUMBER_OF_FRAMES                         : 100544
NUMBER_OF_BYTES                          : 77217792
_STATISTICS_WRITING_APP                  : mkvmerge v9.1.0 ('Little Earthquakes') 64bit
_STATISTICS_WRITING_DATE_UTC             : 2016-06-17 08:12:38
_STATISTICS_TAGS                         : BPS DURATION NUMBER_OF_FRAMES NUMBER_OF_BYTES

Video
ID                                       : 1
Format                                   : AVC
Format/Info                              : Advanced Video Codec
Format profile                           : High@L4.1
Format settings, CABAC                   : Yes
Format settings, ReFrames                : 5 frames
Codec ID                                 : V_MPEG4/ISO/AVC
Duration                                 : 53mn 37s
Bit rate                                 : 3 805 Kbps
Width                                    : 1 280 pixels
Height                                   : 720 pixels
Display aspect ratio                     : 16:9
Frame rate mode                          : Constant
Frame rate                               : 23.976 fps
Color space                              : YUV
Chroma subsampling                       : 4:2:0
Bit depth                                : 8 bits
Scan type                                : Progressive
Bits/(Pixel*Frame)                       : 0.172
Stream size                              : 1.43 GiB (80%)
Writing library                          : x264 core 148 r2694 3b70645
Encoding settings                        : cabac=1 / ref=5 / deblock=1:-3:-3 / analyse=0x3:0x113 / me=umh / subme=8 / psy=1 / psy_rd=1.00:0.00 / mixed_ref=1 / me_range=16 / chroma_me=1 / trellis=2 / 8x8dct=1 / cqm=0 / deadzone=21,11 / fast_pskip=0 / chroma_qp_offset=-2 / threads=22 / lookahead_threads=3 / sliced_threads=0 / nr=0 / decimate=1 / interlaced=0 / bluray_compat=0 / constrained_intra=0 / bframes=3 / b_pyramid=2 / b_adapt=2 / b_bias=0 / direct=3 / weightb=1 / open_gop=0 / weightp=2 / keyint=250 / keyint_min=23 / scenecut=40 / intra_refresh=0 / rc_lookahead=50 / rc=crf / mbtree=1 / crf=18.0 / qcomp=0.60 / qpmin=0 / qpmax=69 / qpstep=4 / ip_ratio=1.40 / aq=3:0.80
Default                                  : Yes
Forced                                   : No

Audio #1
ID                                       : 2
Format                                   : AC-3
Format/Info                              : Audio Coding 3
Mode extension                           : CM (complete main)
Format settings, Endianness              : Big
Codec ID                                 : A_AC3
Duration                                 : 53mn 37s
Bit rate mode                            : Constant
Bit rate                                 : 192 Kbps
Channel(s)                               : 2 channels
Channel positions                        : Front: L R
Sampling rate                            : 48.0 KHz
Bit depth                                : 16 bits
Compression mode                         : Lossy
Stream size                              : 73.6 MiB (4%)
Language                                 : German
Default                                  : Yes
Forced                                   : No

Audio #2
ID                                       : 3
Format                                   : AC-3
Format/Info                              : Audio Coding 3
Mode extension                           : CM (complete main)
Format settings, Endianness              : Big
Codec ID                                 : A_AC3
Duration                                 : 53mn 37s
Bit rate mode                            : Constant
Bit rate                                 : 640 Kbps
Channel(s)                               : 6 channels
Channel positions                        : Front: L C R, Side: L R, LFE
Sampling rate                            : 48.0 KHz
Bit depth                                : 16 bits
Compression mode                         : Lossy
Stream size                              : 245 MiB (14%)
Language                                 : English
Default                                  : No
Forced                                   : No



Download:
Share-Online.biz Share-Online.bizShare-Online.bizShare-Online.biz | Uploaded.net Uploaded.netUploaded.netUploaded.net
 

Kommentare

  1. Geschrieben am 8. May 2017, 16:49 Uhr von egal · #

    S4E9 hat beim entpacken einen Prüfsummenfehler. Kann das jemand verifizieren?

  2. Geschrieben am 12. May 2017, 22:42 Uhr von magy · #

    jap habe ich auch – zumindest bei share-online

    / Winrarreparatur. Wiederherstellungsinfos sollten bei sein.