Filecrypt zeigt vereinzelt Files als "n/a". Die Downloads sind trotzdem komplett.

DNS SERVER AENDERNum der staatlichen Zensur zu umgehen. Sollten wir von eurem Provider geseprrt werden, nutzt den TOR BROWSER oder ändert euren DNS SERVER.

Filmwünsche können bei uns im Forum abgegeben werden

Wir Speichern Nicht




 
 
 
Top Releases
Feinde.Hostiles.2017.DUAL.CO...
The.Miracle.Season.Ihr.groes...
The.Miracle.Season.Ihr.groes...
The.Miracle.Season.Ihr.groes...
Le.Jeu.Nichts.zu.verbergen.2...
Le.Jeu.Nichts.zu.verbergen.2...
Cam.2018.German.DL.1080p.WEB...
Cam.2018.German.DL.720p.WEB....
Teen.Titans.Go.To.the.Movies...
The.Ballad.of.Buster.Scruggs...

Cinedubs
The.Happytime.Murders.Kein.S...
The.Happytime.Murders.Kein.S...
Peppermint.Angel.of.Vengeanc...
Peppermint.Angel.of.Vengeanc...
The.Nun.German.AC3D.DL.1080p...
Christopher.Robin.German.DL....
Christopher.Robin.German.DL....
A.Star.Is.Born.German.DL.AC3...
A.Star.Is.Born.German.DL.AC3...
Mission.Impossible.Fallout.G...

Neuerscheinungen 2017-18
Cliffhanger.Nur.die.Starken....
Cliffhanger.Nur.die.Starken....
Devils.Gate.Pforte.zur.Hoell...
Devils.Gate.Pforte.zur.Hoell...
Beautiful.People.2014.German...
Immortal.Wars.Nur.der.Staerk...
Beautiful.People.2014.DUAL.C...
Devils.Gate.Pforte.zur.Hoell...
Night.Of.The.Demons.1988.DUA...
Africa.Addio.1966.DUAL.COMPL...

XXX
PlumperPass.18.10.29.Veruca....
PornstarPlatinum.18.10.31.Al...
PremiumBukkake.18.10.17.Rebe...
PornMegaLoad.18.10.30.Kacey....
PornMegaLoad.18.10.27.April....
PornMegaLoad.18.10.30.Michel...
PremiumBukkake.18.10.18.Sher...
RKPrime.18.10.29.Aryana.Adin...
NHLPCentral.18.05.28.Beth.Be...
Private.18.10.30.Carly.Rae.G...
PrivateSociety.18.10.29.Just...
NHLPCentral.18.05.21.Natalia...
NHLPCentral.18.06.04.Natalia...
NHLPCentral.18.05.17.Sophia....
Naughty.Threesomes.12.XXX.72...
Naughty.Threesomes.12.XXX.10...
NHLPCentral.18.05.03.French....
NuruMassage.18.10.31.Isabell...
MyFriendsHotMom.18.10.31.Bri...
MetArt.18.10.28.Lola.Chic.Se...

3D
Die.Unglaublichen.2.2018.3D....
Skyscraper.3D.2018.MULTi.COM...
Ant-Man.And.The.Wasp.3D.2018...
Ant.Man.and.the.Wasp.3D.2018...
Die.Unglaublichen.2.3D.2018....
Die.Unglaublichen.2.2018.3D....
Die.Unglaublichen.2.2018.3D....
Sharknado.6.The.Last.One.3D....
Deep.Kleine.Helden.der.Tiefs...
Deep.3D.2017.MULTI.COMPLETE....
Detective.Dee.und.die.Legend...
Detective.Dee.und.die.Legend...
Skyscraper.3D.German.DL.AC3....
Ant-Man.and.the.Wasp.2018.3D...
Jurassic.World.Das.gefallene...

Old_Stuff
Dunkirk.1958.COMPLETE.BLURAY...
Das.Wunder.von.Manhattan.199...
The.Amazing.Spiderman.2.Rise...
Rise.of.the.Predator.2014.Ge...
Detective.Dee.und.das.Geheim...
Detective.Dee.Und.Der.Fluch....
Ghost.Rider.Spirit.of.Vengea...
Species.IV.Das.Erwachen.2007...
Species.IV.Das.Erwachen.2007...
Hotel.Transsilvanien.2012.Ge...
The.Dead.2010.German.DL.1080...
The.Dead.2.India.2013.German...
Britney.Spears.Live.The.Femm...
Buffy.The.Vampire.Slayer.199...
IMAX.Ride.Around.The.World.2...

Filme
Arrow.S06.GERMAN.DL.1080p.HD...
Arrow.S06.GERMAN.DL.720p.HDT...
Black.Lightning.S02.GERMAN.D...
Black.Lightning.S02.GERMAN.D...
Selfless.2015.German.DL.1080...
Full.Speed.2016.German.1080p...
Plan.B.Scheiss.auf.Plan.A.20...
Unter.deutschen.Betten.2017....
Nevada.Smith.1966.German.108...
Herr.Bello.2007.German.1080p...
Narcos.Mexico.S01.COMPLETE.G...
Chennai.Express.2013.German....
Querelle.Ein.Pakt.mit.dem.Te...
Die.Fuersten.der.Dunkelheit....
Blindspot.S03.German.DL.DUBB...
Blindspot.S03.German.DL.DUBB...
Der.Baum.der.Helden.2010.Ger...
Narcos.Mexico.S01.COMPLETE.G...
The.Walking.Dead.S09.GERMAN....
The.Walking.Dead.S09.GERMAN....
Gar.kein.Sex.mehr.1988.Germa...
Cherry.2000.1987.German.DL.1...
Treck.nach.Missouri.1988.Ger...
Tremors.4.Wie.alles.begann.2...

 
 
Orange.is.the.New.Black.S04.COMPLETE.German.DD51.DL.1080p.NetflixUHD.x264-TVS
Jahr: 2016
Genre: Komödie | Krimi | Drama
Sprache: Deutsch AC3 | Englisch AC3
Laufzeit: 53min je Folge
Bitrate: 13 Mbps
Format: MKV
Größe: 5,5 GB je Folge
Release:

Beschreibung:

Die amerikanische Dramaserie „Orange is the New Black“ beruht auf dem Buch „Orange Is the New Black: My Year in a Women’s Prison“ von Piper Kerman. Sie beschreibt darin ihre einjährige Haftstrafe in einem Minimum-Sicherheitsgefängnis in Connecticut. Kerman war als künstlerische und rebellische Studentin durch ihr Umfeld in einen kleinen Drogenschmuggel- und Geldwäschering gerutscht. Zehn Jahre später, längst in einem anderen Lebensabschnitt angekommen und als Public-Realtions-Managerin für Wohltätigkeitsorganisationen tätig, stand schließlich die Polizei vor Kermans Tür.



General
Complete name                            : Orange.is.the.New.Black.S04E01.Schwere.Koerperarbeit.German.DD51.DL.1080p.NetflixUHD.x264-TVS\tvs-oitnb-dd51-dl-18p-nfuhd-x264-401.mkv
Format                                   : Matroska
Format version                           : Version 4 / Version 2
File size                                : 5.28 GiB
Duration                                 : 53mn 38s
Overall bit rate                         : 14.1 Mbps
Movie name                               : TVS - Immer zuerst auf serienjunkies.org
Encoded date                             : UTC 2016-06-19 18:47:30
Writing application                      : mkvmerge v9.2.0 ('Photograph') 64bit
Writing library                          : libebml v1.3.3 + libmatroska v1.4.4
DURATION                                 : 00:52:17.217000000
NUMBER_OF_FRAMES                         : 960
NUMBER_OF_BYTES                          : 32895
_STATISTICS_WRITING_APP                  : mkvmerge v9.2.0 ('Photograph') 64bit
_STATISTICS_WRITING_DATE_UTC             : 2016-06-19 18:47:30
_STATISTICS_TAGS                         : BPS DURATION NUMBER_OF_FRAMES NUMBER_OF_BYTES

Video
ID                                       : 1
Format                                   : AVC
Format/Info                              : Advanced Video Codec
Format profile                           : High@L4.1
Format settings, CABAC                   : Yes
Format settings, ReFrames                : 4 frames
Codec ID                                 : V_MPEG4/ISO/AVC
Duration                                 : 53mn 38s
Bit rate                                 : 13.0 Mbps
Width                                    : 1 920 pixels
Height                                   : 1 080 pixels
Display aspect ratio                     : 16:9
Frame rate mode                          : Constant
Frame rate                               : 23.976 fps
Color space                              : YUV
Chroma subsampling                       : 4:2:0
Bit depth                                : 8 bits
Scan type                                : Progressive
Bits/(Pixel*Frame)                       : 0.262
Stream size                              : 4.88 GiB (93%)
Writing library                          : x264 core 148 r2692 64f4e24
Encoding settings                        : cabac=1 / ref=4 / deblock=1:-1:-1 / analyse=0x3:0x133 / me=umh / subme=10 / psy=1 / psy_rd=1.05:0.00 / mixed_ref=1 / me_range=24 / chroma_me=1 / trellis=2 / 8x8dct=1 / cqm=0 / deadzone=21,11 / fast_pskip=1 / chroma_qp_offset=-2 / threads=24 / lookahead_threads=4 / sliced_threads=0 / nr=0 / decimate=1 / interlaced=0 / bluray_compat=0 / constrained_intra=0 / bframes=8 / b_pyramid=2 / b_adapt=2 / b_bias=0 / direct=3 / weightb=1 / open_gop=0 / weightp=2 / keyint=250 / keyint_min=23 / scenecut=40 / intra_refresh=0 / rc_lookahead=60 / rc=crf / mbtree=1 / crf=17.5 / qcomp=0.60 / qpmin=0 / qpmax=69 / qpstep=4 / ip_ratio=1.40 / aq=2:0.90
Default                                  : Yes
Forced                                   : No
Color primaries                          : BT.709
Transfer characteristics                 : BT.709
Matrix coefficients                      : BT.709

Audio #1
ID                                       : 2
Format                                   : AC-3
Format/Info                              : Audio Coding 3
Mode extension                           : CM (complete main)
Format settings, Endianness              : Big
Codec ID                                 : A_AC3
Duration                                 : 53mn 38s
Bit rate mode                            : Constant
Bit rate                                 : 384 Kbps
Channel(s)                               : 6 channels
Channel positions                        : Front: L C R, Side: L R, LFE
Sampling rate                            : 48.0 KHz
Bit depth                                : 16 bits
Compression mode                         : Lossy
Stream size                              : 147 MiB (3%)
Language                                 : German
Default                                  : Yes
Forced                                   : No

Audio #2
ID                                       : 3
Format                                   : AC-3
Format/Info                              : Audio Coding 3
Mode extension                           : CM (complete main)
Format settings, Endianness              : Big
Codec ID                                 : A_AC3
Duration                                 : 53mn 38s
Bit rate mode                            : Constant
Bit rate                                 : 384 Kbps
Channel(s)                               : 6 channels
Channel positions                        : Front: L C R, Side: L R, LFE
Sampling rate                            : 48.0 KHz
Bit depth                                : 16 bits
Compression mode                         : Lossy
Stream size                              : 147 MiB (3%)
Language                                 : English
Default                                  : No
Forced                                   : No

Text #1
ID                                       : 4
Format                                   : UTF-8
Codec ID                                 : S_TEXT/UTF8
Codec ID/Info                            : UTF-8 Plain Text
Language                                 : German
Default                                  : No
Forced                                   : No

Text #2
ID                                       : 5
Format                                   : UTF-8
Codec ID                                 : S_TEXT/UTF8
Codec ID/Info                            : UTF-8 Plain Text
Language                                 : English
Default                                  : No
Forced                                   : No



Download:
Share-Online.biz Share-Online.bizShare-Online.bizShare-Online.biz | Uploaded.net Uploaded.netUploaded.netUploaded.net
 

Kommentare