Filecrypt zeigt vereinzelt Files als "n/a". Die Downloads sind trotzdem komplett.

DNS SERVER AENDERNum der staatlichen Zensur zu umgehen. Sollten wir von eurem Provider geseprrt werden, nutzt den TOR BROWSER oder ändert euren DNS SERVER.

Filmwünsche können bei uns im Forum abgegeben werden

Wir Speichern Nicht




 
 
 
Top Releases
Oceans.8.2018.German.AC3.DL....
Constantine.City.of.Demons.2...
Meg.2018.German.Dubbed.RETAi...
Meg.2018.German.Dubbed.RETAi...
Die.Unglaublichen.2.2018.Ger...
Logan.Noir.Edition.2017.MULT...
Hotel.Artemis.2018.German.AC...
Ant-Man.2015.German.AC3.DL.1...
In.den.Gaengen.2018.German.A...
Oceans.8.2018.MULTi.COMPLETE...

Cinedubs
10x10.2018.German.AC3D.DL.10...
Predator.Upgrade.German.DL.A...
Predator.Upgrade.German.DL.A...
10×10.2018.German.AC3D.DL.1...
10×10.2018.German.AC3D.DL.7...
Sicario.2.German.DL.AC3.Dubb...
Sicario.2.German.DL.AC3.Dubb...
Hotel.Artemis.German.DL.AC3....
Mission.Impossible.Fallout.2...
Mission.Impossible.Fallout.2...

Neuerscheinungen 2017-18
Ein.gewisser.Herr.Gran.1933....
Vampire.gegen.Herakles.The.V...
Steig.Nicht.Aus.2018.German....
Der.Falke.und.der.Schneemann...
Gate.Die.Unterirdischen.1987...
Hostile.2017.DUAL.COMPLETE.B...
Stoppt.die.Todesfahrt.der.U-...
Zorro.1975.MULTi.COMPLETE.BL...
Meg.The.Meg.2018.COMPLETE.UH...
Skin.Creepers.2018.GERMAN.CO...

XXX
FoxxedUp.18.10.23.Eden.Sin.C...
DogHouseDigital.18.10.28.Cha...
FakeTaxi.18.10.31.Rhiannon.R...
FTVGirls.18.10.30.Mazzy.Tall...
EuroTeenErotica.18.10.29.Min...
EvilAngel.Cum.Filled.Schoolg...
ATKGirlfriends.18.10.31.Kenz...
FootsieBabes.18.10.28.Luna.C...
DevilsFilm.18.10.31.Alexandr...
EvilAngel.Hookup.Hotshot.Sex...
EternalDesire.18.10.31.Alice...
DorcelClub.18.10.29.Cherry.K...
Fitting-Room.18.10.29.Adrian...
BustyArianna.18.09.21.Boob.M...
DevilsFilm.18.10.28.Claudia....
FakeTaxi.18.10.28.Ava.Koxxx....
BustyArianna.18.09.27.Beach....
FTVMilfs.18.10.30.Christy.Lo...
BustyArianna.18.09.15.Ariann...
DontBreakMe.18.10.31.Selena....

3D
Ant-Man.And.The.Wasp.3D.2018...
Ant.Man.and.the.Wasp.3D.2018...
Die.Unglaublichen.2.3D.2018....
Die.Unglaublichen.2.2018.3D....
Die.Unglaublichen.2.2018.3D....
Sharknado.6.The.Last.One.3D....
Deep.Kleine.Helden.der.Tiefs...
Deep.3D.2017.MULTI.COMPLETE....
Detective.Dee.und.die.Legend...
Detective.Dee.und.die.Legend...
Skyscraper.3D.German.DL.AC3....
Ant-Man.and.the.Wasp.2018.3D...
Jurassic.World.Das.gefallene...
Jurassic.World.Das.gefallene...
Best.of.3D.vol.10.-.12.GERMA...

Old_Stuff
Detective.Dee.und.das.Geheim...
Detective.Dee.Und.Der.Fluch....
Ghost.Rider.Spirit.of.Vengea...
Species.IV.Das.Erwachen.2007...
Species.IV.Das.Erwachen.2007...
Hotel.Transsilvanien.2012.Ge...
The.Dead.2010.German.DL.1080...
The.Dead.2.India.2013.German...
Britney.Spears.Live.The.Femm...
Buffy.The.Vampire.Slayer.199...
IMAX.Ride.Around.The.World.2...
Schimanski.-.Duisburg.Ruhror...
Akte.X.S02.German.DTS.DL.108...
How.I.Met.Your.Mother.S02.Ge...
Akte.X.S01.German.DTS.DL.108...

Filme
Oceans.8.2018.German.DL.2160...
The.Walking.Dead.S09.UNCUT.G...
The.Walking.Dead.S09.UNCUT.G...
Modern.Family.S09.GERMAN.DUB...
Legends.of.Tomorrow.S03.GERM...
Xanadu.1980.German.AC3D.DL.7...
Evet.ich.will.2008.German.DT...
Oceans.8.2018.German.DL.2160...
Spill.Toedlicher.Virus.1996....
Cluny.Brown.auf.Freiersfuess...
Exit.Lauf.um.dein.Leben.2006...
Weiblich.ledig.jung.sucht.ak...
Viva.Maria.1965.German.1080p...
Die.Unglaublichen.2.2018.Ger...
Die.Unglaublichen.2.2018.Ger...
ACDC.LIVE.4.Disc.Collectors....
Mars.S02.GERMAN.DL.1080p.HDT...
The.Originals.S05.GERMAN.720...
Supernatural.S13.DL.DD51.Dub...
Supernatural.S13.DL.DD51.Dub...
Modern.Family.S09.GERMAN.DUB...
Power.2014.S05.German.DL.DUB...
Power.2014.S05.German.DL.DUB...
Ray.Donovan.S06.GERMAN.DUBBE...

 
 
The.Finest.Hours.2016.German.DTS.DL.1080p.BluRay.x264-Pate
Jahr: 2016
Genre: Action, Drama, History
Sprache: Deutsch DTS | Englisch DTS
Laufzeit: 1h 57mn
Bitrate: 12.5 Mbps
Format: MKV
Größe: 10.2 GiB
Release:

Beschreibung:

Am 18. Februar 1952 trifft ein schlimmer Sturm die Ostküste New Englands und verwandelt das Meer in eine Gefahrenzone ohnegleichen. Für die Schiffe wird das Gewässer zur tödlichen Falle, so auch für den Öltanker SS Pendleton. Ihn zerreißt der tosende Orkan in zwei Hälften, wodurch 30 Seemänner im Heck des schnell sinkenden Kolosses eingeschlossen sind. Inmitten einer streitenden und verängstigten Mannschaft liegt es am Rangältesten Ray Sybert (Casey Affleck), den Männern Hoffnung und die nötige Stärke zum Weitermachen zu geben. Derweil erfährt die Küstenwache von der Katastrophe und der zuständige Offizier Daniel Cluff (Eric Bana) ordnet eine Rettungsmission an. Trotz der schlechten Aussichten auf Erfolg fahren vier Männer unter der Führung von Bernie Webber (Chris Pine) in einem kleinen Boot auf die tosende See hinaus, wo sie gegen meterhohe Wellen und orkanartige Winde ankämpfen müssen, um die Besatzung der SS Pendleton zu retten.



Unique ID                                : 181278952942463423443677235224136582831 (0x88610E6EA6BE5F8CB301E4DC877706AF)
Complete name                            : pate-finest.h.108.mkv
Format                                   : Matroska
Format version                           : Version 2
File size                                : 10.2 GiB
Duration                                 : 1h 57mn
Overall bit rate                         : 12.5 Mbps
Movie name                               : Pate
Encoded date                             : UTC 2016-06-28 09:12:09
Writing application                      : mkvmerge v3.4.0 ('Rapunzel') gebaut am May 15 2010 09:38:20
Writing library                          : libebml v0.8.0 + libmatroska v0.9.0

Video
ID                                       : 1
Format                                   : AVC
Format/Info                              : Advanced Video Codec
Format profile                           : High@L4.1
Format settings, CABAC                   : Yes
Format settings, ReFrames                : 5 frames
Codec ID                                 : V_MPEG4/ISO/AVC
Duration                                 : 1h 57mn
Bit rate                                 : 9 187 Kbps
Width                                    : 1 920 pixels
Height                                   : 800 pixels
Display aspect ratio                     : 2.40:1
Frame rate mode                          : Constant
Frame rate                               : 23.976 (24000/1001) fps
Color space                              : YUV
Chroma subsampling                       : 4:2:0
Bit depth                                : 8 bits
Scan type                                : Progressive
Bits/(Pixel*Frame)                       : 0.249
Stream size                              : 7.53 GiB (74%)
Title                                    : 1080p Pate
Writing library                          : x264 core 148 r2694 3b70645
Encoding settings                        : cabac=1 / ref=5 / deblock=1:-3:-3 / analyse=0x3:0x113 / me=umh / subme=9 / psy=1 / psy_rd=1.10:0.00 / mixed_ref=1 / me_range=24 / chroma_me=1 / trellis=2 / 8x8dct=1 / cqm=0 / deadzone=21,11 / fast_pskip=0 / chroma_qp_offset=-2 / threads=12 / lookahead_threads=1 / sliced_threads=0 / nr=0 / decimate=1 / interlaced=0 / bluray_compat=0 / constrained_intra=0 / bframes=5 / b_pyramid=2 / b_adapt=1 / b_bias=0 / direct=3 / weightb=1 / open_gop=0 / weightp=2 / keyint=250 / keyint_min=23 / scenecut=40 / intra_refresh=0 / rc=crf / mbtree=0 / crf=18.0 / qcomp=0.60 / qpmin=16 / qpmax=69 / qpstep=4 / ip_ratio=1.40 / pb_ratio=1.30 / aq=1:1.00
Language                                 : English
Default                                  : Yes
Forced                                   : Yes

Audio #1
ID                                       : 2
Format                                   : DTS
Format/Info                              : Digital Theater Systems
Mode                                     : 16
Format settings, Endianness              : Big
Codec ID                                 : A_DTS
Duration                                 : 1h 57mn
Bit rate mode                            : Constant
Bit rate                                 : 1 509 Kbps
Channel(s)                               : 6 channels
Channel positions                        : Front: L C R, Side: L R, LFE
Sampling rate                            : 48.0 KHz
Frame rate                               : 93.750 fps (512 spf)
Bit depth                                : 24 bits
Compression mode                         : Lossy
Delay relative to video                  : 11ms
Stream size                              : 1.24 GiB (12%)
Language                                 : German
Default                                  : Yes
Forced                                   : Yes

Audio #2
ID                                       : 3
Format                                   : DTS
Format/Info                              : Digital Theater Systems
Mode                                     : 16
Format settings, Endianness              : Big
Codec ID                                 : A_DTS
Duration                                 : 1h 57mn
Bit rate mode                            : Constant
Bit rate                                 : 1 509 Kbps
Channel(s)                               : 6 channels
Channel positions                        : Front: L C R, Side: L R, LFE
Sampling rate                            : 48.0 KHz
Frame rate                               : 93.750 fps (512 spf)
Bit depth                                : 24 bits
Compression mode                         : Lossy
Delay relative to video                  : 11ms
Stream size                              : 1.24 GiB (12%)
Language                                 : English
Default                                  : No
Forced                                   : No

Text #1
ID                                       : 4
Format                                   : UTF-8
Codec ID                                 : S_TEXT/UTF8
Codec ID/Info                            : UTF-8 Plain Text
Title                                    : forced
Language                                 : German
Default                                  : Yes
Forced                                   : Yes

Text #2
ID                                       : 5
Format                                   : VobSub
Muxing mode                              : zlib
Codec ID                                 : S_VOBSUB
Codec ID/Info                            : Picture based subtitle format used on DVDs
Language                                 : German
Default                                  : No
Forced                                   : No

Text #3
ID                                       : 6
Format                                   : VobSub
Muxing mode                              : zlib
Codec ID                                 : S_VOBSUB
Codec ID/Info                            : Picture based subtitle format used on DVDs
Language                                 : English
Default                                  : No
Forced                                   : No


Download:
Share Online | Uploaded Share Online | UploadedShare Online | UploadedShare Online | Uploaded
 

Kommentare