DNS SERVER AENDERNum der staatlichen Zensur zu umgehen. Sollten wir von eurem Provider geseprrt werden, nutzt den TOR BROWSER oder ändert euren DNS SERVER.

Filmwünsche können bei uns im Forum abgegeben werden

Wir Speichern Nicht




 
 
 
Top Releases
Midnight.Sun.Alles.fuer.dich...
Familiye.2017.German.AC3.108...
Gringo.2018.German.DL.1080p....
Deadpool.2.Super.Duper.Cut.2...
Deadpool.2.Super.Duper.Cut....
Deadpool.2.Super.Duper.Cut.2...
Thelma.2017.German.AC3.DL.10...
Familiye.2017.German.1080p.B...
Familiye.2017.German.720p.Bl...
Midnight.Sun.Alles.fuer.dich...

Cinedubs
Breaking.In.2018.UNRATED.GER...
Breaking.In.2018.UNRATED.GER...
Breaking.In.2018.UNRATED.GER...
Die.Farbe.des.Horizonts.2018...
Die.Farbe.des.Horizonts.2018...
Catch.Me.2018.GERMAN.DL.AC3....
Catch.Me.2018.GERMAN.DL.AC3....
Skyscraper.2018.German.AC3LD...
Skyscraper.2018.GERMAN.DL.AC...
Der.Dolmetscher.German.AC3.7...

Neuerscheinungen 2017-18
Wilson.Der.Weltverbesserer.2...
Wilson.Der.Weltverbesserer.2...
Das.Zeitraetsel.2018.German....
Das.Zeitraetsel.2018.German....
Familiye.2017.GERMAN.COMPLET...
Lazer.Team.2015.DC.German.DL...
Lazer.Team.2015.DC.German.72...
Badlands.1973.MULTi.COMPLETE...
A.Thought.of.Ecstasy.2017.MU...
Criminal.Squad.THEATRICAL.20...

XXX
FuckingOffice.18.08.13.Naomi...
DateSlam.18.08.13.Miyuki.Asi...
EvilAngel.Anal.Players.5.XXX...
EvilAngel.18.07.05.Maddy.Ore...
GirlsOutWest.18.08.14.Kristi...
GirlsOutWest.18.08.13.Rose.B...
EvilAngel.18.08.13.Victoria....
Cosmid.18.08.13.Teresa.Kurta...
EuroGirlsOnGirls.18.08.13.In...
FemJoy.18.08.14.Cosmo.Summer...
FTVMilfs.18.08.14.Krissy.Lyn...
FitnessRooms.18.08.13.Mia.Na...
DaughterSwap.18.07.14.Skylar...
DevilsFilm.18.08.13.Aaliyah....
FutileStruggles.Backyard.Bon...
FakeDrivingSchool.18.08.13.G...
DigitalPlayground.18.08.13.C...
DevilsFilm.18.08.14.Sloan.Ha...
FutileStruggles.Clear.Strap....
GirlsOutWest.18.08.12.Jessie...

3D
Avengers.Infinity.War.3D.201...
Rampage.Big.Meets.Bigger.3D....
Rampage.Big.Meets.Bigger.3D....
Rampage.Big.Meets.Bigger.3D....
Winter.Games.3D.2013.DUAL.CO...
Tomb.Raider.3D.2018.German.7...
Rampage.Big.Meets.Bigger.3D....
Rampage.Big.Meets.Bigger.3D....
Tomb.Raider.3D.2018.MULTi.CO...
Pacific.Rim.Uprising.3D.2018...
Ready.Player.One.3D.2018.Ger...
Rampage.-.Big.Meets.Bigger.2...
Ready.Player.One.2018.3D.HOU...
Ready.Player.One.2018.3D.HSB...
Ready.Player.One.3D.2018.MUL...

Old_Stuff
Meine.liebe.Rabenmutter.germ...
Da.Vincis.Demons.S01.Complet...
Eragon.Das.Vermaechtnis.der....
Adele.und.das.Geheimnis.des....
Die.fabelhafte.Welt.der.Amel...
Haus.des.Geldes.S01.German.M...
How.I.Met.Your.Mother.S01.Ge...
The.Dark.Knight.Rises.2012.M...
Weissensee.S03.2015.GERMAN.C...
Weissensee.S01+S02.2010.GERM...
Die.Unglaublichen.-.The.Incr...
Der.grosse.Trick.1978.German...
Sully.2016.MULTi.COMPLETE.BL...
Tremors.3.Die.neue.Brut.2001...
Die.Indianer.von.Cleveland.2...

Filme
Deadpool.2.2018.The.Super.Du...
Mr.Destiny.1990.German.DL.AC...
Mr.Destiny.1990.German.DL.AC...
Wahrheit.oder.Pflicht.Truth....
Steppenwolf.1974.German.DL.1...
Thelma.2017.German.DL.DTS.72...
Thelma.2017.German.DL.DTS.10...
Familiye.2017.German.AC3.108...
Familiye.2017.German.AC3.720...
Gringo.2018.German.DTS.DL.72...
Gringo.2018.German.DTS.DL.10...
Veronika.beschliesst.zu.ster...
Dead.Presidents.UNRATED.1995...
Die.gute.Erde.1937.German.AC...
Steppenwolf.1974.OAR.German....
Death.Watch.Der.gekaufte.Tod...
Communion.-.Messe.des.Grauen...
Monte.Carlo.Rallye.1969.Germ...
Ring.2.Unrated.2005.German.A...
Spot.-.Ein.Hund.auf.Abwegen....
Spot.-.See.Spot.Run.2001.Ger...
All.is.Lost.Ueberleben.ist.a...
Die.durch.die.Hoelle.gehen.1...
The.Flash.2014.S04.GERMAN.72...

 
 
Bates.Motel.S04.COMPLETE.GERMAN.DL.DUBBED.1080p.WebHD.x264-TVP
Jahr: 2016
Genre: Drama | Horror | Mystery
Sprache: Deutsch AC3 | Englisch AC3
Laufzeit: 41min je Folge
Bitrate: 5100 Kbps
Format: MKV
Größe: 1,7 GB je Folge
Release:

Beschreibung:

Nach dem tragischen Tod ihres Ehemanns kauft Norma Bates ein Motel am Rande des idyllischen Küstenstädtchens White Pine Bay, um ein neues Leben anzufangen. Als Mutter und Sohn sich in ihrem neuen Zuhause niederlassen, müssen sie schon bald erfahren, dass die Stadt nicht so malerisch ist, wie sie schien. Und auch die Bewohner sind nicht gerade darauf erpicht mit den Zugezogenen ihre Geheimnisse zu teilen. Doch die Bates‘ lassen sich nicht mehr herumschubsen und werden alles tun um zu überleben und ihre eigenen Geheimnisse beschützen.



General
Complete name                            : Bates.Motel.S04E01.A.Danger.To.Himself.And.Others.GERMAN.DL.DUBBED.1080p.WebHD.x264-TVP\tvp-batesmotel-s04e01-1080p.mkv
Format                                   : Matroska
Format version                           : Version 2
File size                                : 1.67 GiB
Duration                                 : 40mn 50s
Overall bit rate                         : 5 856 Kbps
Movie name                               : Bates.Motel.S04E01.A.Danger.To.Himself.And.Others.GERMAN.DL.DUBBED.1080p.WebHD.x264-TVP
Encoded date                             : UTC 2016-09-06 19:42:47
Writing application                      : mkvmerge v5.6.0 ('Kenya Kane') built on May 28 2012 06:47:39
Writing library                          : libebml v1.2.2 + libmatroska v1.3.0

Video
ID                                       : 1
Format                                   : AVC
Format/Info                              : Advanced Video Codec
Format profile                           : High@L4.0
Format settings, CABAC                   : Yes
Format settings, ReFrames                : 4 frames
Codec ID                                 : V_MPEG4/ISO/AVC
Duration                                 : 40mn 50s
Bit rate                                 : 5 164 Kbps
Width                                    : 1 920 pixels
Height                                   : 1 080 pixels
Display aspect ratio                     : 16:9
Frame rate mode                          : Constant
Frame rate                               : 25.000 fps
Color space                              : YUV
Chroma subsampling                       : 4:2:0
Bit depth                                : 8 bits
Scan type                                : Progressive
Bits/(Pixel*Frame)                       : 0.100
Stream size                              : 1.47 GiB (88%)
Title                                    : tvp-batesmotel-s04e01-1080p
Language                                 : German
Default                                  : Yes
Forced                                   : Yes
Color primaries                          : BT.709
Transfer characteristics                 : BT.709
Matrix coefficients                      : BT.709

Audio #1
ID                                       : 2
Format                                   : AC-3
Format/Info                              : Audio Coding 3
Mode extension                           : CM (complete main)
Format settings, Endianness              : Big
Codec ID                                 : A_AC3
Duration                                 : 40mn 50s
Bit rate mode                            : Constant
Bit rate                                 : 192 Kbps
Channel(s)                               : 2 channels
Channel positions                        : Front: L R
Sampling rate                            : 48.0 KHz
Bit depth                                : 16 bits
Compression mode                         : Lossy
Stream size                              : 56.1 MiB (3%)
Language                                 : German
Default                                  : Yes
Forced                                   : Yes

Audio #2
ID                                       : 3
Format                                   : AC-3
Format/Info                              : Audio Coding 3
Mode extension                           : CM (complete main)
Format settings, Endianness              : Big
Codec ID                                 : A_AC3
Duration                                 : 40mn 50s
Bit rate mode                            : Constant
Bit rate                                 : 384 Kbps
Channel(s)                               : 6 channels
Channel positions                        : Front: L C R, Side: L R, LFE
Sampling rate                            : 48.0 KHz
Bit depth                                : 16 bits
Compression mode                         : Lossy
Stream size                              : 112 MiB (7%)
Language                                 : English
Default                                  : No
Forced                                   : No



Download:
Share-Online.biz Share-Online.bizShare-Online.bizShare-Online.biz | Uploaded.net Uploaded.netUploaded.netUploaded.net
 

Kommentare