Filmwünsche können bei uns im Forum abgegeben werden

Wir Speichern Nicht




 
 
 
Top Releases
Der.Stern.von.Indien.2017.Ge...
Der.Stern.von.Indien.2017.Ge...
Dunkirk.2017.German.DL.1080p...
Dunkirk.2017.IMAX.German.DTS...
Dunkirk.2017.German.720p.Blu...
Dalida.2016.GERMAN.720p.BluR...
Dalida.2016.GERMAN.1080p.Blu...
Dalida.2016.DUAL.COMPLETE.BL...
Mein.fast.perfekter.Vater.Th...
Die.Tribute.von.Panem.Catchi...

Cinedubs
Flatliners.2017.German.AC3MD...
Flatliners.2017.German.AC3MD...
Dunkirk.2017.IMAX.German.AC3...
Dunkirk.2017.IMAX.German.AC3...
Dunkirk.2017.IMAX.German.AC3...
Schneemann.German.DL.AC3.Dub...
ES.2017.German.DL.AC3.Dubbed...
Dunkirk.2017.German.AC3MD.DL...
The.Lego.Ninjago.Movie.2017....
The.Lego.Ninjago.Movie.2017....

Neuerscheinungen 2016-17
The.Kelly.Family.We.Got.Love...
Escape.Room.2017.German.DL.1...
The.Holly.Kane.Experiment.20...
Iron.Man.2.4k.2010.multi.com...
Escape.Room.2017.German.DL.1...
Escape.Room.2017.German.720p...
Max.Agent.auf.vier.Pfoten.20...
Max.Agent.auf.vier.Pfoten.20...
Max.Agent.auf.vier.Pfoten.20...
Leatherface.2017.German.720p...

XXX
UltraFilms.17.11.09.Eveline....
ShemalesFromHell.17.09.08.Er...
SisLovesMe.17.11.28.Sadie.Bl...
RealAgent.17.11.01.Emily.Arc...
SexArt.17.11.26.Myiuki.Son.S...
UltraFilms.17.11.25.Tee.Nka....
Sexflexvideo.17.11.30.Redhea...
VintageFlash.17.11.24.Sophia...
ScrewBox.17.11.26.Jennifer.J...
ShemalesFromHell.17.08.27.Ad...
ShemalesFromHell.17.09.01.Je...
Sexflexvideo.17.12.02.Sophia...
RylskyArt.17.12.01.Astrud.Vi...
X-Art.17.12.01.Nicole.Black....
Twistys.17.11.11.Blair.Summe...
Sexflexvideo.17.12.02.Victor...
SeducedByACougar.17.11.27.Sy...
Sinslife.17.11.23.Throwback....
SelfieSuck.17.11.02.Daniela....
Shoplyfter.17.11.29.Alyce.An...

3D
Walhalla.Rising.3D.2009.Germ...
Spider.Man.Homecoming.3D.Ger...
Valerian.Die.Stadt.der.tause...
Valerian.Die.Stadt.der.tause...
Valerian.Die.Stadt.der.tause...
Valerian.Die.Stadt.der.tause...
Warcraft.The.Beginning.3D.HS...
Transformers.The.Last.Knight...
Warcraft.The.Beginning.3D.HO...
Die.Schneekoenigin.3.Feuer.u...
Die.Schneekoenigin.3.Feuer.u...
Terra.X.Dracula.-.Die.wahre....
Abenteuer.Safari.3D.Safari.P...
Die.Schneekoenigin.3.3D.2016...
Spider.Man.Homecoming.3D.201...

Old_Stuff
American.Sniper.2014.MULTi.C...
Hana-bi.Feuerblume.1997.Germ...
Memphis.Belle.1990.German.DL...
Im.Schatten.des.Mondes.Germa...
Tomb.Raider.2001.DUAL.COMPLE...
Tomb.Raider.Die.Wiege.des.Le...
Party.Animals.3.German.AC3.7...
The.Rocky.Horror.Picture.Sho...
Die.Fliege.1986.German.DTS.1...
Mimic.2.2001.German.DD5.1D.D...
The.Tournament.UNCUT.2009.Ge...
Dr.House.S08.German.720p.Blu...
Dr.House.S07.German.720p.Blu...
Dr.House.S06.German.720p.Blu...
Dr.House.S05.German.720p.Blu...

Musik
Remote.Galaxy.by.Flint.Juven...
Trondheim.Solistene.Souvenir...
The.Beatles.Sgt.Peppers.Lone...
The.Prometheus.Dolby.Atmos.E...
R.E.M.OUT.OF.TIME.25th.Anniv...
The.Rolling.Stones.GRRR.BR-A...
Mussorgsky.Bilder.einer.Auss...
Yes.-.The.Yes.Album.Bluray-A...
Carlos.Heredia.Gypsy.Flamenc...
SPES.2014.complete.Bluray.un...
Carlos.Santana.Collection.19...
Pink.Floyd.The.Endless.River...
The.Hyperion.Romantic.Piano....
Putumayo.113.CD.Flac.lossles...
UFO.Let.It.Roll.Limited.Edit...

Filme
Dolans.Cadillac.2009.German....
Dolans.Cadillac.2009.German....
The.Da.Vinci.Code.Sakrileg.4...
Miss.Marple.Moerder.Ahoi.-.M...
Mimesis.Night.of.the.Living....
Jagdszenen.aus.Niederbayern....
Game.of.thrones.s07d01-3.201...
Das.verrueckte.Familienfest....
Jumanji.1995.German.DL.1080p...
Doctor.Who.S10.German.DD51.S...
Doctor.Who.S10.German.DD51.S...
Manhunt.Unabomber.S01.COMPLE...
Manhunt.Unabomber.S01.COMPLE...
NCIS.S15.GERMAN.DUBBED.DL.72...
The.Librarians.S03.COMPLETE....
Starship.Troopers.1997.Germa...
Colors.Farben.der.Gewalt.UNR...
Das.Privatleben.des.Sherlock...
Twin.Dragons.1992.German.AC3...
Strike.One.2014.German.AC3.D...
The.Good.Fight.S01.GERMAN.DU...
187.Eine.toedliche.Zahl.1997...
Gib.dem.Affen.Zucker.1981.RE...
Gib.dem.Affen.Zucker.1981.RE...

 
 
NCIS.S14.COMPLETE.GERMAN.DUBBED.DL.720p.WebHD.h264-euHD
Jahr: 2016
Genre: Action | Komödie | Drama
Sprache: Deutsch AC3 | Englisch AC3
Laufzeit: 40min je Folge
Bitrate: 4100 Kbps
Format: MKV
Größe: 1,3 GB je Folge
Release:

Beschreibung:

Die Ermittler des Naval Criminal Investigative Service (NCIS) treten immer dann auf die Bühne, wenn Mitglieder der U.S. Navy oder des U.S. Marine Corps in Verbrechen verwickelt sind. Chef des Ermittlungsteams ist Special Agent Leroy Jethro Gibbs (Mark Harmon), der zunächst Unterstützung von Tony DiNozzo (Michael Weatherly) und Kate Todd (Sasha Alexander). Ebenfalls im Team sind die Forensiker Abby Sciuto (Pauley Perrette) und der Gerichtsmediziner Donald „Ducky“ Mallard (David McCallum). Gemeinsam mit dem jungen Agenten Timothy McGee (Sean Murray), der im Laufe der ersten Staffel zu der Truppe stößt, gilt es, Morde und andere Straftaten aufzuklären.

 

enthaltene Folgen (Staffel komplett):

NCIS.S14E01.Neu.im.Team.GERMAN.DUBBED.DL.720p.WebHD.h264-euHD

NCIS.S14E02.Bad.Boy.GERMAN.DUBBED.DL.720p.WebHD.h264-euHD

NCIS.S14E03.Sturz.vom.Dach.GERMAN.DUBBED.DL.720p.WebHD.h264-euHD

NCIS.S14E04.Love.Boat.GERMAN.DUBBED.DL.720p.WebHD.h264-euHD

NCIS.S14E05.Philly.GERMAN.DUBBED.DL.720p.WebHD.h264-euHD

NCIS.S14E06.Der.Whistleblower.GERMAN.DUBBED.DL.720p.WebHD.h264-euHD

NCIS.S14E07.Home.of.the.Brave.GERMAN.DUBBED.DL.720p.WebHD.h264-euHD

Episode 08 noch nicht released

NCIS.S14E09.Ratten.GERMAN.DUBBED.DL.720p.WebHD.h264-euHD

NCIS.S14E10.Spaetes.Glueck.GERMAN.DUBBED.DL.720p.WebHD.h264-euHD

NCIS.S14E11.Operation.Willoughby.GERMAN.DUBBED.DL.720p.WebHD.h264-euHD 

NCIS.S14E12.Spears.ist.wieder.da.GERMAN.DUBBED.DL.720p.WebHD.h264-euHD

NCIS.S14E13.Durch.die.Hoelle.GERMAN.DUBBED.DL.1080p.WebHD.x264-TVP (Folge 13 von euHD ist defekt)

NCIS.S14E14.Der.perfekte.Plan.GERMAN.DUBBED.DL.720p.WebHD.h264-euHD

NCIS.S14E15.Die.Spur.fuehrt.nach.New.Orleans.GERMAN.DUBBED.DL.720p.WebHD.h264-euHD

NCIS.S14E16.Unmoegliche.Entscheidung.GERMAN.DUBBED.DL.720p.WebHD.h264-euHD

NCIS.S14E17.Tanz.mit.dem.Teufel.GERMAN.DUBBED.DL.720p.WebHD.h264-euHD 

NCIS.S14E18.Tag.fuer.Tag.GERMAN.DUBBED.DL.720p.WebHD.h264-euHD 

NCIS.S14E19.Der.Querkopf.GERMAN.DUBBED.DL.720p.WebHD.h264-euHD 

NCIS.S14E20.Eine.Schuessel.voller.Kirschen.GERMAN.DUBBED.DL.720p.WebHD.h264-euHD

NCIS.S14E21.Kein.uebler.Deal.GERMAN.DUBBED.DL.720p.WebHD.h264-euHD

NCIS.S14E22.Der.Pferdefluesterer.GERMAN.DUBBED.DL.720p.WebHD.h264-euHD

NCIS.S14E23.Woche.Zehn.GERMAN.DUBBED.DL.720p.WebHD.h264-euHD

NCIS.S14E24.Paraguay.GERMAN.DUBBED.DL.720p.WebHD.h264-euHD NEU



General

Complete name                            : NCIS.S14E01.Neu.im.Team.GERMAN.DUBBED.DL.720p.WebHD.h264-euHD\euhd-ncis-s14e01-720p.mkv
Format                                   : Matroska
Format version                           : Version 2
File size                                : 1.31 GiB
Duration                                 : 40mn 5s
Overall bit rate                         : 4 677 Kbps
Encoded date                             : UTC 2016-12-02 20:03:12
Writing application                      : mkvmerge v5.1.0 ('And so it goes') built on Nov 28 2011 23:58:28
Writing library                          : libebml v1.2.3 + libmatroska v1.3.0

Video
ID                                       : 1
Format                                   : AVC
Format/Info                              : Advanced Video Codec
Format profile                           : High@L4.1
Format settings, CABAC                   : Yes
Format settings, ReFrames                : 5 frames
Codec ID                                 : V_MPEG4/ISO/AVC
Duration                                 : 40mn 5s
Bit rate                                 : 4 100 Kbps
Width                                    : 1 280 pixels
Height                                   : 720 pixels
Display aspect ratio                     : 16:9
Frame rate mode                          : Constant
Frame rate                               : 25.000 fps
Color space                              : YUV
Chroma subsampling                       : 4:2:0
Bit depth                                : 8 bits
Scan type                                : Progressive
Bits/(Pixel*Frame)                       : 0.178
Stream size                              : 1.12 GiB (86%)
Writing library                          : x264 core 148 r2692 64f4e24
Encoding settings                        : cabac=1 / ref=5 / deblock=1:-3:-3 / analyse=0x3:0x113 / me=umh / subme=7 / psy=1 / psy_rd=1.00:0.00 / mixed_ref=1 / me_range=16 / chroma_me=1 / trellis=1 / 8x8dct=1 / cqm=0 / deadzone=21,11 / fast_pskip=0 / chroma_qp_offset=-2 / threads=12 / lookahead_threads=2 / sliced_threads=0 / nr=0 / decimate=1 / interlaced=0 / bluray_compat=0 / constrained_intra=0 / bframes=3 / b_pyramid=2 / b_adapt=1 / b_bias=0 / direct=1 / weightb=1 / open_gop=0 / weightp=2 / keyint=250 / keyint_min=25 / scenecut=40 / intra_refresh=0 / rc_lookahead=40 / rc=2pass / mbtree=1 / bitrate=4100 / ratetol=1.0 / qcomp=0.60 / qpmin=0 / qpmax=69 / qpstep=4 / cplxblur=20.0 / qblur=0.5 / ip_ratio=1.40 / aq=1:1.00
Default                                  : Yes
Forced                                   : No
Color primaries                          : BT.709
Transfer characteristics                 : BT.709
Matrix coefficients                      : BT.709

Audio #1
ID                                       : 2
Format                                   : AC-3
Format/Info                              : Audio Coding 3
Format profile                           : Dolby Digital
Mode extension                           : CM (complete main)
Format settings, Endianness              : Big
Codec ID                                 : A_AC3
Duration                                 : 40mn 5s
Bit rate mode                            : Constant
Bit rate                                 : 192 Kbps
Channel(s)                               : 2 channels
Channel positions                        : Front: L R
Sampling rate                            : 48.0 KHz
Bit depth                                : 16 bits
Compression mode                         : Lossy
Stream size                              : 55.1 MiB (4%)
Language                                 : German
Default                                  : Yes
Forced                                   : No

Audio #2
ID                                       : 3
Format                                   : AC-3
Format/Info                              : Audio Coding 3
Mode extension                           : CM (complete main)
Format settings, Endianness              : Big
Codec ID                                 : A_AC3
Duration                                 : 40mn 5s
Bit rate mode                            : Constant
Bit rate                                 : 384 Kbps
Channel(s)                               : 6 channels
Channel positions                        : Front: L C R, Side: L R, LFE
Sampling rate                            : 48.0 KHz
Bit depth                                : 16 bits
Compression mode                         : Lossy
Stream size                              : 110 MiB (8%)
Language                                 : English
Default                                  : No
Forced                                   : No



Download:
Share-Online.biz Share-Online.bizShare-Online.bizShare-Online.biz |
 

Kommentare

  1. Geschrieben am 30. September 2017, 08:15 Uhr von LugiaP · #

    Folge 8 wurde am 4. August released.