Filecrypt zeigt vereinzelt Files als "n/a". Die Downloads sind trotzdem komplett.

DNS SERVER AENDERNum der staatlichen Zensur zu umgehen. Sollten wir von eurem Provider geseprrt werden, nutzt den TOR BROWSER oder ändert euren DNS SERVER.

Filmwünsche können bei uns im Forum abgegeben werden

Wir Speichern Nicht




 
 
 
Top Releases
Hereditary.Das.Vermaechtnis....
Kedi.Von.Katzen.und.Menschen...
Skyscraper.German.DL.AC3.Dub...
Skyscraper.German.DL.AC3.Dub...
Hereditary.Das.Vermaechtnis....
Hotel.Transsilvanien.3.Ein.M...
Hereditary.2018.MULTi.COMPLE...
Ant-Man.and.the.Wasp.2018.Ge...
Meine.Weihnachtsliebe.2016.G...
Meine.Weihnachtsliebe.2016.G...

Cinedubs
Bad.Spies.2018.German.AC3MD....
Bad.Spies.2018.German.AC3MD....
MEG.Biss.bald.2018.German.AC...
Slender.Man.2018.GERMAN.DL.A...
Slender.Man.2018.GERMAN.DL.A...
MEG.Biss.bald.2018.German.AC...
MEG.Biss.bald.2018.German.AC...
Searching.2018.German.AC3MD....
Searching.2018.German.AC3MD....
211.Cops.Under.Fire.2018.Ger...

Neuerscheinungen 2017-18
Antiviral.2012.MULTI.COMPLET...
Antiviral.2012.GERMAN.DL.108...
Patient.Zero.2018.German.DTS...
Patient.Zero.2018.German.DTS...
The.Jurassic.Games.2018.GERM...
Jeepers.Creepers.3.2017.Germ...
Men.At.Work.1990.MULTi.COMPL...
Men.at.Work.1990.German.DL.1...
Das.ist.erst.der.Anfang.Just...
Das.ist.erst.der.Anfang.Miss...

XXX
PornMegaLoad.18.10.03.Vanna....
FTVMilfs.18.10.02.Ryan.Keely...
LaCochonne.18.10.01.Kristy.B...
NubileFilms.18.10.02.Cherry....
InTheCrack.E1456.Shrima.Mala...
VIPArea.18.10.05.Vanessa.Ver...
WankItNow.17.11.14.Tindra.Fr...
ATKHairy.18.10.02.Malta.XXX....
MistressT.18.06.01.Clinical....
Penthouse.Sinful.Deeds.And.D...
BigButtsLikeItBig.18.10.01.L...
GirlsOutWest.18.10.05.May.XX...
BlacksOnBlondes.18.10.02.Pep...
PornMegaLoad.18.10.01.Terra....
DevilsFilm.Blacked.Out.10.XX...
ATKGirlfriends.18.10.01.Zoe....
DevilsFilm.18.10.03.Mandy.Mu...
MilfBody.18.10.03.Aubrey.Bla...
ATKGirlfriends.18.10.05.Mega...
MistressT.17.09.11.BBC.Fag.W...

3D
Detective.Dee.und.die.Legend...
Skyscraper.3D.German.DL.AC3....
Ant-Man.and.the.Wasp.2018.3D...
Jurassic.World.Das.gefallene...
Jurassic.World.Das.gefallene...
Best.of.3D.vol.10.-.12.GERMA...
Die.Biene.Maja.2.Die.Honigsp...
Sharknado.6.The.Last.One.3D....
Solo.A.Star.Wars.Story.3D.20...
Solo.A.Star.Wars.Story.3D.20...
Die.Biene.Maja.2.Die.Honigsp...
Avengers.Infinity.War.3D.201...
Avengers.Infinity.War.3D.201...
Rampage.Big.Meets.Bigger.3D....
Rampage.Big.Meets.Bigger.3D....

Old_Stuff
Species.IV.Das.Erwachen.2007...
Species.IV.Das.Erwachen.2007...
Hotel.Transsilvanien.2012.Ge...
The.Dead.2010.German.DL.1080...
The.Dead.2.India.2013.German...
Britney.Spears.Live.The.Femm...
Buffy.The.Vampire.Slayer.199...
IMAX.Ride.Around.The.World.2...
Schimanski.-.Duisburg.Ruhror...
Akte.X.S02.German.DTS.DL.108...
How.I.Met.Your.Mother.S02.Ge...
Akte.X.S01.German.DTS.DL.108...
Den.Himmel.gibts.echt.DL.108...
Vikings.S02.German.DL.1080p....
Be.Kind.Rewind.Abgedreht.200...

Filme
The.Graves.German.DL.1080p.B...
The.Honor.of.Killing.2012.Ge...
Ein.Sarg.aus.Hongkong.1964.G...
Ein.Richter.sieht.rot.1983.G...
Ein.Vogel.auf.dem.Drahtseil....
Antiviral.2012.GERMAN.720p.B...
The.Glass.Shield.Auf.Ehre.un...
Wildauge.The.Midwife.German....
Descent.2007.German.DTS.DL.1...
The.Last.Warrior.2000.German...
Cannibal.Rising.2012.German....
Die.vier.Schaedel.des.Jonath...
You.Cant.Kill.Stephen.King.2...
Wake.Wood.2011.German.DTS.DL...
Ein.Mord.mit.Aussicht.2015.G...
Boris.Becker.Der.Spieler.201...
Ein.Leben.fuer.ein.Leben.Ada...
Die.vier.Soehne.der.Katie.El...
Ein.Kuss.vor.dem.tode.1956.G...
Ein.Mann.fuer.gewisse.Stunde...
Ein.letzter.Sommer.2010.Germ...
Pusher.2012.German.DL.1080p....
Draculas.Bluthochzeit.mit.Fr...
Mr.Destiny.1990.German.AC3D....

 
 
The.Rolling.Stones.Havana.Moon.Live.in.Cuba.2016.1080p.MBluRay.x264-LiQUiD
Jahr: 2016
Genre: Dokumentation
Sprache: FLAC / DTS
Laufzeit: 1h 50mn
Bitrate: 12.8 Mbps
Format: MKV
Größe: 9.84 GiB
Release:

Beschreibung:

Am 25. März gaben The Rolling Stones ihr erstes Konzert in Kuba. Mit “Havana moon” dokumentiert die legendäre Formation dieses einmalige Live-Erlebnis. Das damalig kostenlose Spektakel ist das allererste Rock-Event seiner Art dort und nun durch diesen Mitschnitt allen Zuschauern der Welt zugänglich. Das Gänsehaut-Erlebnis wurde vom preisgekrönten Filmregisseur Paul Dugdale aufgenommen und wird jeden Stones-Fan begeistern.



General
Unique ID                                : 253851690901967255824411149727963567554 (0xBEFA0EAAD4371DF78B875F41870455C2)
Complete name                            : lqd-stoneshavanamoon1080p.mkv
Format                                   : Matroska
Format version                           : Version 4 / Version 2
File size                                : 9.84 GiB
Duration                                 : 1h 50mn
Overall bit rate mode                    : Variable
Overall bit rate                         : 12.8 Mbps
Encoded date                             : UTC 2016-12-08 14:38:10
Writing application                      : mkvmerge v9.0.1 ('Obstacles') 64bit
Writing library                          : libebml v1.3.3 + libmatroska v1.4.4

Video
ID                                       : 1
Format                                   : AVC
Format/Info                              : Advanced Video Codec
Format profile                           : High@L4.1
Format settings, CABAC                   : Yes
Format settings, ReFrames                : 5 frames
Codec ID                                 : V_MPEG4/ISO/AVC
Duration                                 : 1h 50mn
Bit rate                                 : 10.5 Mbps
Width                                    : 1 920 pixels
Height                                   : 800 pixels
Display aspect ratio                     : 2.40:1
Frame rate mode                          : Constant
Frame rate                               : 29.970 (30000/1001) fps
Color space                              : YUV
Chroma subsampling                       : 4:2:0
Bit depth                                : 8 bits
Scan type                                : Progressive
Bits/(Pixel*Frame)                       : 0.228
Stream size                              : 8.06 GiB (82%)
Writing library                          : x264 core 148 r2744 b97ae06
Encoding settings                        : cabac=1 / ref=5 / deblock=1:0:0 / analyse=0x3:0x133 / me=umh / subme=8 / psy=1 / psy_rd=1.00:0.00 / mixed_ref=1 / me_range=16 / chroma_me=1 / trellis=1 / 8x8dct=1 / cqm=0 / deadzone=21,11 / fast_pskip=0 / chroma_qp_offset=-2 / threads=12 / lookahead_threads=2 / sliced_threads=0 / nr=0 / decimate=1 / interlaced=0 / bluray_compat=0 / constrained_intra=0 / bframes=3 / b_pyramid=2 / b_adapt=1 / b_bias=0 / direct=1 / weightb=1 / open_gop=0 / weightp=2 / keyint=250 / keyint_min=25 / scenecut=40 / intra_refresh=0 / rc_lookahead=40 / rc=2pass / mbtree=1 / bitrate=10482 / ratetol=1.0 / qcomp=0.60 / qpmin=0 / qpmax=69 / qpstep=4 / cplxblur=20.0 / qblur=0.5 / ip_ratio=1.40 / aq=1:1.00
Language                                 : English
Default                                  : Yes
Forced                                   : No

Audio #1
ID                                       : 2
Format                                   : FLAC
Format/Info                              : Free Lossless Audio Codec
Codec ID                                 : A_FLAC
Duration                                 : 1h 50mn
Bit rate mode                            : Variable
Bit rate                                 : 805 Kbps
Channel(s)                               : 2 channels
Channel positions                        : Front: L R
Sampling rate                            : 48.0 KHz
Frame rate                               : 11.719 fps (4096 spf)
Bit depth                                : 16 bits
Stream size                              : 634 MiB (6%)
Writing library                          : libFLAC 1.2.1 (UTC 2007-09-17)
Default                                  : Yes
Forced                                   : No

Audio #2
ID                                       : 3
Format                                   : DTS
Format/Info                              : Digital Theater Systems
Mode                                     : 16
Format settings, Endianness              : Big
Codec ID                                 : A_DTS
Duration                                 : 1h 50mn
Bit rate mode                            : Constant
Bit rate                                 : 1 509 Kbps
Channel(s)                               : 6 channels
Channel positions                        : Front: L C R, Side: L R, LFE
Sampling rate                            : 48.0 KHz
Frame rate                               : 93.750 fps (512 spf)
Bit depth                                : 24 bits
Compression mode                         : Lossy
Stream size                              : 1.16 GiB (12%)
Default                                  : No
Forced                                   : No


Download:
Share Online | Uploaded Share Online | UploadedShare Online | UploadedShare Online | Uploaded
 

Kommentare