Filmwünsche können bei uns im Forum abgegeben werden

Wir Speichern Nicht




 
 
 
Top Releases
Der.Duellist.2016.German.108...
Der.Duellist.2016.German.720...
Planet.der.Affen.Revolution....
The.LEGO.Batman.Movie.2017.M...
The.Mermaid.2016.MULTi.COMPL...
Valerian.Die.Stadt.der.tause...
X-Men.Erste.Entscheidung.201...
Spider.Man.Homecoming.2017.G...
Beta.Test.2016.MULTi.COMPLET...
Valerian.Die.Stadt.der.tause...

Cinedubs
Barry.Seal.Only.in.America.G...
Barry.Seal.Only.in.America.G...
Barry.Seal.Only.in.America.2...
Barry.Seal.Only.in.America.2...
The.Big.Sick.GERMAN.DL.MD.10...
The.Big.Sick.GERMAN.DL.MD.72...
Geostorm.German.DL.MD.720p.H...
American.Assassin.2017.Germa...
American.Assassin.2017.Germa...
Colossal.2016.German.AC3D.DL...

Neuerscheinungen 2016-17
The.Harvest.2013.German.DL.7...
The.Harvest.2013.German.DL.1...
Killing.Ground.2016.German.D...
Uncle.Nick.2015.German.DL.10...
Valerian.Die.Stadt.der.tause...
Wish.for.Christmas.Glaube.an...
Ihre.beste.Stunde.2016.Germa...
Wish.for.Christmas.Glaube.an...
Uncle.Nick.2015.German.720p....
Uncle.Nick.2015.German.DL.10...

XXX
InnocentHigh.17.11.13.Alyce....
FitnessRooms.17.11.13.Barbie...
HotGuysFuck.17.10.27.Dorian....
ElegantAnal.17.11.13.Henessy...
EvilAngel.Open.My.Ass.2.XXX....
AdultAuditions.E54.Perfect.P...
EternalDesire.17.11.11.Elina...
AdultAuditions.E51.Natural.T...
FullyClothedPissing.17.11.12...
AdultAuditions.E48.Juicy.Jen...
AdultAuditions.E55.Natural.T...
InfernalRestraints.17.11.10....
FakeTaxi.17.11.12.Pippa.Blon...
GirlsRimming.17.11.03.Sofi.G...
HotGuysFuck.17.11.10.Gio.Loc...
HuCows.17.10.14.Penny.Lee.Re...
ImmoralLive.17.11.11.Lady.De...
AdultAuditions.E44.Hot.Blond...
FakeAgent.17.11.13.Tina.Bell...
AdultAuditions.E47.Hot.Emo.P...

3D
Abenteuer.Safari.3D.Safari.P...
Die.Schneekoenigin.3.3D.2016...
Spider.Man.Homecoming.3D.201...
Terminator.2.Tag.der.Abrechn...
Terminator.2.Tag.der.Abrechn...
Terminator.2.Tag.der.Abrechn...
Spider.Man.Homecoming.3D.201...
The.Spacewalker.3D.2017.DL.c...
Ich.Einfach.unverbesserlich....
Ich.Einfach.unverbesserlich....
Jail.Bait.3D.2013.2D3D.MULTi...
Planet.der.Affen.Survival.20...
Planet.der.Affen.Survival.20...
Sword.Master.3D.2016.2D3D.GE...
Sword.Master.3D.2016.German....

Old_Stuff
Tomb.Raider.2001.DUAL.COMPLE...
Tomb.Raider.Die.Wiege.des.Le...
Party.Animals.3.German.AC3.7...
The.Rocky.Horror.Picture.Sho...
Die.Fliege.1986.German.DTS.1...
Mimic.2.2001.German.DD5.1D.D...
The.Tournament.UNCUT.2009.Ge...
Dr.House.S08.German.720p.Blu...
Dr.House.S07.German.720p.Blu...
Dr.House.S06.German.720p.Blu...
Dr.House.S05.German.720p.Blu...
Dr.House.S04.German.720p.Blu...
Dr.House.S03.German.720p.Blu...
Dr.House.S02.German.720p.Blu...
Dr.House.S01.German.720p.Blu...

Musik
Remote.Galaxy.by.Flint.Juven...
Trondheim.Solistene.Souvenir...
The.Beatles.Sgt.Peppers.Lone...
The.Prometheus.Dolby.Atmos.E...
R.E.M.OUT.OF.TIME.25th.Anniv...
The.Rolling.Stones.GRRR.BR-A...
Mussorgsky.Bilder.einer.Auss...
Yes.-.The.Yes.Album.Bluray-A...
Carlos.Heredia.Gypsy.Flamenc...
SPES.2014.complete.Bluray.un...
Carlos.Santana.Collection.19...
Pink.Floyd.The.Endless.River...
The.Hyperion.Romantic.Piano....
Putumayo.113.CD.Flac.lossles...
UFO.Let.It.Roll.Limited.Edit...

Filme
Terminator.2.Tag.der.Abrechn...
Prinzessin.Dornroeschen.1978...
Home.Guards.2015.German.1080...
Re.E137.Bernstein.Fieber.-.I...
Hercules.THEATRICAL.2014.Ger...
American.Horror.Story.S07.GE...
Preacher.S02D01-3.MULTi.COMP...
American.Horror.Story.S07.GE...
The.Shannara.Chronicles.S02....
The.Long.Road.Home.S01.GERMA...
Mr.Babysitter.1993.UNCUT.Ger...
Nachtlaerm.German.DL.1080p.B...
Hidden.in.the.Woods.2014.Ger...
Verborgene.Schoenheit.2016.G...
Ritter.Rost.2.Das.Schrottkom...
The.First.Avenger.Civil.War....
Der.Unbeugsame.1967.German.D...
Vehicle.19.2013.German.DL.10...
Bad.Moms.2016.German.DL.1080...
Newsies.Die.Zeitungsjungen.1...
Clueless.1995.German.AC3D.DL...
Mountain.Men.-.Ueberleben.in...
Bad.Medicine.1985.German.AC3...
Mountain.Men.-.Ueberleben.in...

 
 
The.Walking.Dead.S06.Complete.German.DL.1080p.BluRay.x264-iNTENTiON
Jahr: 2015
Genre: Drama | Horror | Sci-Fi
Sprache: Deutsch DTS | Englisch DTS
Laufzeit: 1h je Folge
Bitrate: 8200 Kbps
Format: MKV
Größe: 5 GB je Folge
Release:

Beschreibung:

Die US-Serie "The Walking Dead" ist eine Adaption der gleichnamigen Comicbuchreihe von Robert Kirkman. Darin geht es um eine Gruppe von Menschen, die nach der Apokalypse als letzte Überlebende in einer Welt bestehen muss, die von Zombies bevölkert wird. Im Mittelpunkt der Serie steht der Polizist Rick Grimes, der für sich und seine Mitstreiter eine sichere Zuflucht sucht.



General
Complete name                            : The.Walking.Dead.S06E01.German.DL.1080p.BluRay.x264-iNTENTiON\the.walking.dead.s06e01.german.dl.1080p.bluray.x264-intention.mkv
Format                                   : Matroska
Format version                           : Version 2
File size                                : 5.07 GiB
Duration                                 : 1h 4mn
Overall bit rate                         : 11.2 Mbps
Writing application                      : mkvmerge v6.6.0 ('The Edge Of The In Between') built on Dec 1 2013 17:55:00
Writing library                          : libebml v1.3.0 + libmatroska v1.4.1

Video
ID                                       : 1
Format                                   : AVC
Format/Info                              : Advanced Video Codec
Format profile                           : High@L4.1
Format settings, CABAC                   : Yes
Format settings, ReFrames                : 4 frames
Codec ID                                 : V_MPEG4/ISO/AVC
Duration                                 : 1h 4mn
Bit rate                                 : 8 190 Kbps
Width                                    : 1 920 pixels
Height                                   : 1 080 pixels
Display aspect ratio                     : 16:9
Frame rate mode                          : Constant
Frame rate                               : 23.976 fps
Color space                              : YUV
Chroma subsampling                       : 4:2:0
Bit depth                                : 8 bits
Scan type                                : Progressive
Bits/(Pixel*Frame)                       : 0.165
Stream size                              : 3.61 GiB (71%)
Writing library                          : x264 core 148 r2721 72d53ab
Encoding settings                        : cabac=1 / ref=4 / deblock=1:-3:-3 / analyse=0x3:0x133 / me=umh / subme=8 / psy=1 / psy_rd=1.00:0.15 / mixed_ref=1 / me_range=16 / chroma_me=1 / trellis=1 / 8x8dct=1 / cqm=0 / deadzone=21,11 / fast_pskip=0 / chroma_qp_offset=-3 / threads=12 / lookahead_threads=2 / sliced_threads=0 / nr=0 / decimate=1 / interlaced=0 / bluray_compat=0 / constrained_intra=0 / bframes=3 / b_pyramid=2 / b_adapt=2 / b_bias=0 / direct=3 / weightb=1 / open_gop=0 / weightp=2 / keyint=240 / keyint_min=24 / scenecut=40 / intra_refresh=0 / rc_lookahead=50 / rc=2pass / mbtree=1 / bitrate=8190 / ratetol=1.0 / qcomp=0.60 / qpmin=0 / qpmax=69 / qpstep=4 / cplxblur=20.0 / qblur=0.5 / ip_ratio=1.40 / aq=1:1.00
Language                                 : English
Default                                  : Yes
Forced                                   : No

Audio #1
ID                                       : 2
Format                                   : DTS
Format/Info                              : Digital Theater Systems
Mode                                     : 16
Format settings, Endianness              : Big
Codec ID                                 : A_DTS
Duration                                 : 1h 4mn
Bit rate mode                            : Constant
Bit rate                                 : 1 509 Kbps
Channel(s)                               : 6 channels
Channel positions                        : Front: L C R, Side: L R, LFE
Sampling rate                            : 48.0 KHz
Bit depth                                : 24 bits
Compression mode                         : Lossy
Stream size                              : 699 MiB (13%)
Language                                 : German
Default                                  : Yes
Forced                                   : No

Audio #2
ID                                       : 3
Format                                   : DTS
Format/Info                              : Digital Theater Systems
Mode                                     : 16
Format settings, Endianness              : Big
Codec ID                                 : A_DTS
Duration                                 : 1h 4mn
Bit rate mode                            : Constant
Bit rate                                 : 1 509 Kbps
Channel(s)                               : 6 channels
Channel positions                        : Front: L C R, Side: L R, LFE
Sampling rate                            : 48.0 KHz
Bit depth                                : 24 bits
Compression mode                         : Lossy
Stream size                              : 699 MiB (13%)
Language                                 : English
Default                                  : Yes
Forced                                   : No

Text
ID                                       : 4
Format                                   : UTF-8
Codec ID                                 : S_TEXT/UTF8
Codec ID/Info                            : UTF-8 Plain Text
Title                                    : Forced
Language                                 : German
Default                                  : Yes
Forced                                   : Yes

Menu
00:00:00.000                             : en:00:00:00.000
00:03:24.204                             : en:00:03:24.204
00:21:54.480                             : en:00:21:54.480
00:33:31.468                             : en:00:33:31.468
00:41:45.294                             : en:00:41:45.294
00:46:49.223                             : en:00:46:49.223
00:57:07.674                             : en:00:57:07.674
01:04:04.049                             : en:01:04:04.049



Download:
Share-Online.biz Share-Online.bizShare-Online.bizShare-Online.biz | Uploaded.net Uploaded.netUploaded.netUploaded.net
 

Kommentare