Wir sind wenn hd-area.org mal ausfällt unter hd-area.biz erreichbar


Hier klickenfür Informationen zur Umgehung staatlicher Zensurmaßnahmen




Filmwünsche können bei uns im Forum abgegeben werden

Wir Speichern Nicht




 
 
 
Top Releases
Live.by.Night.2016.German.Du...
I.am.not.your.Negro.2016.Ger...
I.am.not.your.Negro.2016.Ger...
The.Devils.Candy.2015.German...
Erpressung.Wie.viel.ist.dein...
Hell.or.High.Water.2016.Germ...
Sicario.2015.German.DTS.DL.1...
Loving.2016.German.DTS.DL.10...
Der.grosse.Trip.Wild.2014.Ge...
Der.grosse.Trip.Wild.2014.Ge...

Cinedubs
King.Arthur.Legend.of.the.Sw...
King.Arthur.Legend.of.the.Sw...
Chips.German.DL.AC3.Dubbed.7...
Chips.German.DL.AC3.Dubbed.1...
Kong.Skull.Island.German.DL....
Kong.Skull.Island.German.DL....
Resident.Evil.The.Final.Chap...
Resident.Evil.The.Final.Chap...
Resident.Evil.The.Final.Chap...
Resident.Evil.Vendetta.Germa...

Neuerscheinungen 2016-17
Voice.from.the.Stone.Ruf.aus...
Voice.from.the.Stone.Ruf.aus...
The.Shadow.Man.2017.German.D...
Erpressung.Wie.viel.ist.dein...
Nur.48.Stunden.German.1982.D...
Tokyo.Grand.Guignol.2015.COM...
Bon.Voyage.ihr.Idioten.2013....
The.Binding.2016.German.DL.1...
The.Binding.2016.German.720p...
Moontrap.Angriffsziel.Erde.2...

XXX
Penthouse.16.05.01.Crista.Mo...
Penthouse.16.05.02.Molly.Rae...
PascalsSubSluts.17.06.22.Lau...
MikaelaWitt.17.05.19.Foot.Fe...
Nubiles.17.06.23.Krystyna.Pu...
PlumperPass.17.06.23.Veronic...
PixAndVideo.17.06.23.Darcia....
Penthouse.16.05.02.Nicole.Gr...
PornMegaLoad.17.06.21.Sherry...
NuruMassage.17.06.21.Avi.Lov...
MomKnowsBest.17.06.23.Caroli...
PornstarPlatinum.17.06.22.Al...
NaughtyOffice.17.06.23.Natal...
Porntugal.15.12.04.Susana.Me...
Porntugal.15.12.02.Rebecca.P...
Passion-HD.17.06.24.Kenzie.K...
Nubiles.17.06.21.Krystyna.Lo...
Porntugal.15.12.05.Scarlett....
NubileFilms.17.06.21.Melody....
MissaX.17.06.02.Penny.Pax.Th...

3D
Storm.Surfers.3D.2012.Bluray...
Die.irre.Heldentour.des.Bill...
Die.Bestimmung.Insurgent.3D....
Die.Bestimmung.Insurgent.3D....
The.Great.Wall.3D.2016.multi...
San.Andreas.3D.2015.German.D...
Mojin.The.Lost.Legend.3D.201...
The.LEGO.Batman.Movie.3D.201...
The.LEGO.Batman.Movie.2017.3...
The.LEGO.Batman.Movie.2017.3...
Kraftwerk.3D.12345678.2016.2...
Die.irre.Heldentour.des.Bill...
Die.irre.Heldentour.des.Bill...
L.A.Outlaws.Die.Gesetzlosen....
L.A.Outlaws.Die.Gesetzlosen....

Old_Stuff
Lie.With.Me.Liebe.Mich.2005....
Zurueck.zu.Dir.2000.GERMAN.A...
P.O.E.-.Project.of.Evil.UNCU...
Fields.of.the.Dead.3D.2014.D...
Feuerwerk.am.helllichten.Tag...
Pitch.Perfect.2012.German.DT...
Das.A-Team.S05.German.DUBBED...
Das.A-Team.S05.German.DUBBED...
House.Rules.for.Bad.Girls.3D...
Return.To.Nuke.Em.High.Volum...
Dragons.of.Camelot.2014.DUAL...
Amy.Sie.oeffnet.das.Tor.zur....
13.Eerie.We.Prey.For.You.UNC...
Codename.U.N.C.L.E.2015.MULT...
Halloween.Resurrection.2002....

Musik
The.Beatles.Sgt.Peppers.Lone...
The.Prometheus.Dolby.Atmos.E...
R.E.M.OUT.OF.TIME.25th.Anniv...
The.Rolling.Stones.GRRR.BR-A...
Mussorgsky.Bilder.einer.Auss...
Yes.-.The.Yes.Album.Bluray-A...
Carlos.Heredia.Gypsy.Flamenc...
SPES.2014.complete.Bluray.un...
Carlos.Santana.Collection.19...
Pink.Floyd.The.Endless.River...
The.Hyperion.Romantic.Piano....
Putumayo.113.CD.Flac.lossles...

Filme
Das.Messer.1985.GERMAN.720p....
Die.Konfirmation.2017.GERMAN...
Chaos.unterm.Korb.1995.Germa...
Crossroads.1986.German.AC3D....
Fist.of.God.2014.German.1080...
Fist.of.God.2014.German.720p...
Kong.Skull.Island.2017.COMPL...
Best.of.the.Best.3.No.Turnin...
Superstore.S01-S02.German.DL...
Superstore.S01-S02.German.DL...
Fear.The.Walking.Dead.S03.Ge...
American.Crime.S03.GERMAN.DL...
Best.of.the.Best.3.No.Turnin...
Best.of.the.Best.3.No.Turnin...
American.Crime.S03.GERMAN.72...
Pretty.Little.Liars.S07.Germ...
Preacher.S02.GERMAN.DL.DUBBE...
Preacher.S02.GERMAN.Dubbed.7...
GLOW.S01.COMPLETE.German.DL....
Gotham.S03.GERMAN.DUBBED.DL....
Gotham.S03.GERMAN.DUBBED.DL....
Vampire.Diaries.S08.GERMAN.D...
The.Vampire.Diaries.S08.GERM...
Angie.Tribeca.S03.GERMAN.DUB...

 
 
Vampire.Diaries.S08.GERMAN.DUBBED.DL.1080p.WebHD.x264-TVP
Jahr: 2016
Genre: Drama | Fantasy | Horror
Sprache: Deutsch AC3 | Englisch AC3
Laufzeit: 41min je Folge
Bitrate: 8300 Kbps
Format: MKV
Größe: 2,6 GB je Folge
Release:

Beschreibung:

Die 17-jährige Elena und ihr jüngerer Bruder Jeremy haben vor vier Monaten ihre Eltern bei einem schweren Autounfall verloren. Die Teenager kämpfen mit dem Verlust und ihrer Trauer. Als das neue Schuljahr an der Mystic Falls Highschool beginnt, trifft Elena auf ihren neuen Mitschüler Stefan Salvator – und spürt sofort eine enge Verbindung. Doch Stefan hat eine mysteriöse Art an sich, die Elena nicht deuten kann. Denn Stefan verbirgt ein tödliches Geheimnis: Er ist ein Vampir.

 

enthaltene Folgen:

Vampire.Diaries.S08E01.Hallo.Bruder.GERMAN.DUBBED.DL.1080p.WebHD.x264-TVP

Vampire.Diaries.S08E02.Du.gehoerst.mir.GERMAN.DUBBED.DL.1080p.WebHD.x264-TVP

Vampire.Diaries.S08E03.Ich.bin.ihr.nie.begegnet.GERMAN.DUBBED.DL.1080p.WebHD.x264-TVP

Vampire.Diaries.S08E04.Ruf.aus.der.Hoelle.GERMAN.DUBBED.DL.1080p.WebHD.x264-TVP

Vampire.Diaries.S08E05.Nach.Hause.zu.kommen.war.ein.Fehler.GERMAN.DUBBED.DL.1080p.WebHD.x264-TVP

Vampire.Diaries.S08E06.Pakt.mit.dem.Teufel.GERMAN.DUBBED.DL.1080p.WebHD.x264-TVP

Vampire.Diaries.S08E07.Schwarzes.Fest.GERMAN.DUBBED.DL.1080p.WebHD.x264-TVP

Vampire.Diaries.S08E08.Sie.erinnert.dich.an.Elena.GERMAN.DUBBED.DL.1080p.WebHD.x264-TVP

Vampire.Diaries.S08E09.Wer.wird.Miss.Mystic.Falls.GERMAN.DUBBED.DL.1080p.WebHD.x264-TVP

The.Vampire.Diaries.S08E10.Wenn.es.Zwoelf.schlaegt.GERMAN.DUBBED.DL.1080p.WebHD.x264-TVP

Vampire.Diaries.S08E11.Du.hast.beschlossen.gut.zu.sein.GERMAN.DUBBED.DL.1080p.WebHD.x264-TVP

Vampire.Diaries.S08E12.Was.bist.du.GERMAN.DUBBED.DL.1080p.WebHD.x264-TVP

Vampire.Diaries.S08E13.Die.Luegen.werden.dich.einholen.GERMAN.DUBBED.DL.1080p.WebHD.x264-TVP NEU



General
Complete name                            : Vampire.Diaries.S08E01.Hallo.Bruder.GERMAN.DUBBED.DL.1080p.WebHD.x264-TVP\tvp-vampirediaries-s08e01-1080p.mkv
Format                                   : Matroska
Format version                           : Version 2
File size                                : 2.57 GiB
Duration                                 : 40mn 38s
Overall bit rate                         : 9 052 Kbps
Movie name                               : Vampire.Diaries.S08E01.Hallo.Bruder.GERMAN.DUBBED.DL.1080p.WebHD.x264-TVP
Encoded date                             : UTC 2017-03-30 20:14:19
Writing application                      : mkvmerge v5.6.0 ('Kenya Kane') built on May 28 2012 06:47:39
Writing library                          : libebml v1.2.2 + libmatroska v1.3.0

Video
ID                                       : 1
Format                                   : AVC
Format/Info                              : Advanced Video Codec
Format profile                           : High@L4.1
Format settings, CABAC                   : Yes
Format settings, ReFrames                : 4 frames
Codec ID                                 : V_MPEG4/ISO/AVC
Duration                                 : 40mn 38s
Bit rate                                 : 8 296 Kbps
Width                                    : 1 920 pixels
Height                                   : 1 080 pixels
Display aspect ratio                     : 16:9
Frame rate mode                          : Constant
Frame rate                               : 25.000 fps
Original frame rate                      : 23.976 fps
Color space                              : YUV
Chroma subsampling                       : 4:2:0
Bit depth                                : 8 bits
Scan type                                : Progressive
Bits/(Pixel*Frame)                       : 0.160
Stream size                              : 2.36 GiB (92%)
Title                                    : tvp-vampirediaries-s08e01-1080p
Writing library                          : x264 core 148 r2744 b97ae06
Encoding settings                        : cabac=1 / ref=3 / deblock=1:-3:-3 / analyse=0x3:0x133 / me=umh / subme=7 / psy=1 / psy_rd=1.00:0.15 / mixed_ref=1 / me_range=16 / chroma_me=1 / trellis=2 / 8x8dct=1 / cqm=0 / deadzone=21,11 / fast_pskip=0 / chroma_qp_offset=-3 / threads=12 / lookahead_threads=2 / sliced_threads=0 / nr=0 / decimate=1 / interlaced=0 / bluray_compat=0 / constrained_intra=0 / bframes=3 / b_pyramid=2 / b_adapt=2 / b_bias=0 / direct=1 / weightb=1 / open_gop=0 / weightp=2 / keyint=240 / keyint_min=24 / scenecut=40 / intra_refresh=0 / rc_lookahead=50 / rc=crf / mbtree=1 / crf=19.0 / qcomp=0.60 / qpmin=0 / qpmax=69 / qpstep=4 / ip_ratio=1.40 / aq=1:1.00
Language                                 : German
Default                                  : Yes
Forced                                   : Yes

Audio #1
ID                                       : 2
Format                                   : AC-3
Format/Info                              : Audio Coding 3
Format profile                           : Dolby Digital
Mode extension                           : CM (complete main)
Format settings, Endianness              : Big
Codec ID                                 : A_AC3
Duration                                 : 40mn 38s
Bit rate mode                            : Constant
Bit rate                                 : 192 Kbps
Channel(s)                               : 2 channels
Channel positions                        : Front: L R
Sampling rate                            : 48.0 KHz
Bit depth                                : 16 bits
Compression mode                         : Lossy
Stream size                              : 55.8 MiB (2%)
Language                                 : German
Default                                  : Yes
Forced                                   : Yes

Audio #2
ID                                       : 3
Format                                   : AC-3
Format/Info                              : Audio Coding 3
Mode extension                           : CM (complete main)
Format settings, Endianness              : Big
Codec ID                                 : A_AC3
Duration                                 : 40mn 38s
Bit rate mode                            : Constant
Bit rate                                 : 384 Kbps
Channel(s)                               : 6 channels
Channel positions                        : Front: L C R, Side: L R, LFE
Sampling rate                            : 48.0 KHz
Bit depth                                : 16 bits
Compression mode                         : Lossy
Stream size                              : 112 MiB (4%)
Language                                 : English
Default                                  : No
Forced                                   : No



Download:
Share-Online.biz Share-Online.bizShare-Online.bizShare-Online.biz | Uploaded.net Uploaded.netUploaded.netUploaded.net
 

Kommentare