Wir sind wenn hd-area.org mal ausfällt unter hd-area.biz erreichbar


Hier klickenfür Informationen zur Umgehung staatlicher Zensurmaßnahmen




Filmwünsche können bei uns im Forum abgegeben werden

Wir Speichern Nicht




 
 
 
Top Releases
The.Book.Of.Henry.German.DL....
The.Book.Of.Henry.German.DL....
Jahrhundertfrauen.2016.DUAL....
Silence.2016.MULTi.COMPLETE....
Jahrhundertfrauen.German.720...
Jahrhundertfrauen.German.DL....
Tierische.Evolution.mit.Davi...
Subterranea.2015.DUAL.COMPLE...
Berlin.Syndrom.2017.German.D...
Pirates.of.the.Caribbean.Sal...

Cinedubs
Lommbock.2017.German.AC3.DL....
Lommbock.2017.German.AC3.DL....
Victoria.Maenner.und.andere....
Victoria.Maenner.und.andere....
Una.und.Ray.German.DL.AC3D.1...
Una.und.Ray.German.DL.AC3D.7...
Norman.German.DL.MD.1080p.Bl...
Norman.German.DL.MD.720p.Blu...
Jahrhundertfrauen.German.DL....
Jahrhundertfrauen.German.DL....

Neuerscheinungen 2016-17
Sleepless.2017.MULTi.COMPLET...
Maedelstrip.2017.German.DL.D...
Starship.Troopers.Traitor.of...
Starship.Troopers.Traitor.of...
Ein.Tag.wie.kein.anderer.201...
Ein.Tag.wie.kein.anderer.Ger...
Uncaged.Das.Biest.in.dir.201...
Uncaged.Das.Biest.in.dir.201...
Rush.Hour.Date.Zweisam.im.St...
Rush.Hour.Date.Zweisam.im.St...

XXX
SisLovesMe.17.09.05.Aspen.Ro...
NeighborAffair.17.09.13.Sara...
StraplessDildo.17.09.12.Mia....
NerdPervert.17.08.25.Jasmine...
Swhores.E07.Dirty.Street.Fuc...
Spizoo.17.09.06.Bobbi.Dylan....
PornstarPlatinum.17.09.11.Sa...
SexArt.17.09.06.Dido.A.And.L...
PornstarPlatinum.17.09.04.Al...
TeachMeFisting.17.09.11.Tiff...
StreetBlowJobs.17.09.10.Tiff...
Spizoo.17.09.09.Briana.Banks...
POVLife.17.09.10.Hadley.Visc...
SexArt.17.09.13.Nancy.A.High...
Stunning18.17.09.03.Mary.Kal...
SpyFam.17.09.04.Nina.Skye.XX...
PornMegaLoad.17.09.12.Alix.L...
Swhores.E08.Low-Budget.Sexua...
MistressT.17.07.25.Scent.Fet...
SexuallyBroken.17.09.11.Kat....

3D
Wonder.Woman.3D.2017.MULTI.C...
Tutanchamun.3D.2012.COMPLETE...
Wonder.Woman.3D.HSBS.2017.Ge...
Wonder.Woman.3D.HOU.2017.Ger...
Pirates.of.the.Caribbean.Sal...
Pirates.of.the.Caribbean.Sal...
Die.Mumie.3D.2017.MULTi.COMP...
Wickie.auf.grosser.Fahrt.3D....
Die.Mumie.3D.HSBS.2017.Germa...
Die.Mumie.3D.HOU.2017.German...
Attraction.2017.3D.HSBS.Germ...
Attraction.2017.3D.HOU.Germa...
Attraction.3D.2017.DUAL.COMP...
A.closer.look.presents.Speci...
Attraction.3D.2017.German.10...

Old_Stuff
Life.of.Pi.2012.German.DTS.D...
Rest.Stop.Dont.Look.Back.UNC...
Koenig.der.Loewen.3D.German....
Schuesse.im.Dreiviertel.Takt...
Airwolf.S02.DUAL.BLURAY.COMP...
Don.2.The.King.is.Back.2011....
Prison.Break.S04.Complete.Ge...
Prison.Break.S03.Complete.Ge...
Tuerkisch.fuer.Anfaenger.S03...
Geraubte.Kuesse.1968.DUAL.CO...
Prison.Break.S02.COMPLETE.20...
Planet.der.Affen.Revolution....
Prison.Break.S01.COMPLETE.20...
King.of.Queens.S09.DUAL.COMP...
King.of.Queens.S08.DUAL.COMP...

Musik
The.Beatles.Sgt.Peppers.Lone...
The.Prometheus.Dolby.Atmos.E...
R.E.M.OUT.OF.TIME.25th.Anniv...
The.Rolling.Stones.GRRR.BR-A...
Mussorgsky.Bilder.einer.Auss...
Yes.-.The.Yes.Album.Bluray-A...
Carlos.Heredia.Gypsy.Flamenc...
SPES.2014.complete.Bluray.un...
Carlos.Santana.Collection.19...
Pink.Floyd.The.Endless.River...
The.Hyperion.Romantic.Piano....
Putumayo.113.CD.Flac.lossles...

Filme
The.Expanse.S02.COMPLETE.Ger...
The.Expanse.S02.COMPLETE.Ger...
Fear.The.Walking.Dead.S03.Ge...
Fear.The.Walking.Dead.S03.Ge...
Janky.Promoters.2009.German....
Jail.Bait.Ueberleben.im.Frau...
Tess.und.ihr.Bodyguard.1994....
Star.Trek.Discovery.S01.GERM...
Star.Trek.Discovery.S01.GERM...
Katharina.von.Alexandrien.20...
Dead.Bang.1989.German.AC3D.D...
Die.Schutzengel.-.Les.Anges....
Star.Trek.III.The.Search.for...
Spy.Kids.2001.German.AC3D.DL...
Spy.Kids.2001.German.AC3D.DL...
X-Tro.Nicht.alle.Ausserirdis...
Once.Upon.a.Time.S06.German....
Public.Enemy.S01D01+2.DUAL.C...
Klass.2007.German.AC3D.DL.10...
Klass.2007.German.AC3D.720p....
Fantasia.1940.German.DL.1080...
Wonder.Woman.2017.German.DTS...
Wonder.Woman.2017.German.DTS...
Und.dennoch.leben.sie.1960.G...

 
 
Twin.Peaks.S03.COMPLETE.German.DL.DUBBED.1080p.WebHD.x264-AIDA
Jahr: 2017
Genre: Krimi | Drama | Mystery
Sprache: Deutsch AC3 | Englisch AC3
Laufzeit: 1h je Folge
Bitrate: 11 Mbps
Format: MKV
Größe: 5 GB je Folge
Release:

Beschreibung:

Twin Peaks ist eine kleine Stadt im Norden der USA, unweit der kanadischen Grenze. Hier wird eines Morgens die Leiche der 17-jaehrigen Laura Palmer gefunden, die vor ihrem Tod vergewaltigt und schwer misshandelt wurde. Das Verbrechen reisst den Ort jaeh aus seiner Verschlafenheit und scheinbaren Ruhe und konfrontiert seine Einwohner mit den abgruendigen Seiten des Lebens. Offensichtlich geht in Twin Peaks einiges vor, was sie bislang nicht wahrhaben wollten …

 

enthaltene Folgen (Staffel komplett):

Twin.Peaks.S03E01.German.DL.DUBBED.1080p.WebHD.x264.AUDiO.ADDON-AIDA

Twin.Peaks.S03E02.German.DL.DUBBED.1080p.WebHD.x264-AIDA

Twin.Peaks.S03E03.German.DL.DUBBED.1080p.WebHD.x264-AIDA 

Twin.Peaks.S03E04.German.DL.DUBBED.1080p.WebHD.x264-AIDA

Twin.Peaks.S03E05.German.DL.DUBBED.1080p.WebHD.x264-AIDA

Twin.Peaks.S03E06.German.DL.DUBBED.1080p.WebHD.x264-AIDA

Twin.Peaks.S03E07.German.DL.DUBBED.1080p.WebHD.x264-AIDA

Twin.Peaks.S03E08.German.DL.DUBBED.1080p.WebHD.x264-AIDA

Twin.Peaks.S03E09.German.DL.DUBBED.1080p.WebHD.x264-AIDA

Twin.Peaks.S03E10.German.DL.DUBBED.1080p.WebHD.x264-AIDA

Twin.Peaks.S03E11.German.DL.DUBBED.1080p.WebHD.x264-AIDA

Twin.Peaks.S03E12.German.DL.DUBBED.1080p.WebHD.x264-AIDA

Twin.Peaks.S03E13.German.DL.DUBBED.1080p.WebHD.x264-AIDA

Twin.Peaks.S03E14.German.DL.DUBBED.1080p.WebHD.x264-AIDA

Twin.Peaks.S03E15.German.DL.DUBBED.1080p.WebHD.x264.REPACK-AIDA

Twin.Peaks.S03E16.German.DL.DUBBED.1080p.WebHD.x264-AIDA

Twin.Peaks.S03E17.German.DL.DUBBED.1080p.WebHD.x264.REAL-AIDA NEU

Twin.Peaks.S03E18.German.DL.DUBBED.1080p.WebHD.x264-AIDA NEU



General
Complete name                            : Twin.Peaks.S03E01.German.DL.DUBBED.1080p.WebHD.x264.AUDiO.ADDON-AIDA.mkv
Format                                   : Matroska
Format version                           : Version 4 / Version 2
File size                                : 4.94 GiB
Duration                                 : 58mn 6s
Overall bit rate                         : 12.2 Mbps
Encoded date                             : UTC 2017-05-25 23:02:47
Writing application                      : mkvmerge v9.7.1 ('Pandemonium') 64bit
Writing library                          : libebml v1.3.4 + libmatroska v1.4.5
DURATION                                 : 00:58:05.216000000
NUMBER_OF_FRAMES                         : 108913
NUMBER_OF_BYTES                          : 167290368
_STATISTICS_WRITING_APP                  : mkvmerge v9.7.1 ('Pandemonium') 64bit
_STATISTICS_WRITING_DATE_UTC             : 2017-05-25 23:02:47
_STATISTICS_TAGS                         : BPS DURATION NUMBER_OF_FRAMES NUMBER_OF_BYTES

Video
ID                                       : 1
Format                                   : AVC
Format/Info                              : Advanced Video Codec
Format profile                           : High@L4.1
Format settings, CABAC                   : Yes
Format settings, ReFrames                : 4 frames
Codec ID                                 : V_MPEG4/ISO/AVC
Duration                                 : 58mn 6s
Bit rate                                 : 11.2 Mbps
Width                                    : 1 920 pixels
Height                                   : 1 080 pixels
Display aspect ratio                     : 16:9
Frame rate mode                          : Constant
Frame rate                               : 25.000 fps
Original frame rate                      : 23.976 fps
Color space                              : YUV
Chroma subsampling                       : 4:2:0
Bit depth                                : 8 bits
Scan type                                : Progressive
Bits/(Pixel*Frame)                       : 0.215
Stream size                              : 4.53 GiB (92%)
Writing library                          : x264 core 150 r2829+9 (master: d1fe6fd / tmod: 637083c) [X86_64]
Encoding settings                        : cabac=1 / ref=4 / deblock=1:-3:-3 / analyse=0x3:0x133 / me=umh / subme=11 / psy=1 / fade_compensate=0.00 / psy_rd=1.05:0.15 / mixed_ref=1 / me_range=48 / chroma_me=1 / trellis=2 / 8x8dct=1 / cqm=0 / deadzone=6,6 / fast_pskip=0 / chroma_qp_offset=-3 / threads=30 / lookahead_threads=7 / sliced_threads=0 / nr=0 / decimate=0 / interlaced=0 / bluray_compat=0 / constrained_intra=0 / fgo=0 / bframes=10 / b_pyramid=2 / b_adapt=2 / b_bias=0 / direct=3 / weightb=1 / open_gop=0 / weightp=2 / keyint=250 / keyint_min=23 / scenecut=40 / intra_refresh=0 / rc=crf / mbtree=0 / crf=17.0000 / qcomp=0.65 / qpmin=0:0:0 / qpmax=69:69:69 / qpstep=4 / ip_ratio=1.10 / pb_ratio=1.10 / aq=3:0.70 / aq-sensitivity=10.00 / aq-factor=1.00:1.00:1.00 / aq2=0 / aq3=0
Language                                 : German
Default                                  : No
Forced                                   : No
DURATION                                 : 00:58:06.040000000
NUMBER_OF_FRAMES                         : 87151
NUMBER_OF_BYTES                          : 4963887153
_STATISTICS_WRITING_APP                  : mkvmerge v9.7.1 ('Pandemonium') 64bit
_STATISTICS_WRITING_DATE_UTC             : 2017-05-25 23:02:47
_STATISTICS_TAGS                         : BPS DURATION NUMBER_OF_FRAMES NUMBER_OF_BYTES

Audio #1
ID                                       : 2
Format                                   : AC-3
Format/Info                              : Audio Coding 3
Mode extension                           : CM (complete main)
Format settings, Endianness              : Big
Codec ID                                 : A_AC3
Duration                                 : 58mn 6s
Bit rate mode                            : Constant
Bit rate                                 : 384 Kbps
Channel(s)                               : 6 channels
Channel positions                        : Front: L C R, Side: L R, LFE
Sampling rate                            : 48.0 KHz
Bit depth                                : 16 bits
Compression mode                         : Lossy
Stream size                              : 160 MiB (3%)
Language                                 : German
Default                                  : Yes
Forced                                   : No

Audio #2
ID                                       : 3
Format                                   : AC-3
Format/Info                              : Audio Coding 3
Mode extension                           : CM (complete main)
Format settings, Endianness              : Big
Codec ID                                 : A_AC3
Duration                                 : 58mn 6s
Bit rate mode                            : Constant
Bit rate                                 : 384 Kbps
Channel(s)                               : 6 channels
Channel positions                        : Front: L C R, Side: L R, LFE
Sampling rate                            : 48.0 KHz
Bit depth                                : 16 bits
Compression mode                         : Lossy
Stream size                              : 160 MiB (3%)
Language                                 : English
Default                                  : No
Forced                                   : No



Download:
Share-Online.biz Share-Online.bizShare-Online.bizShare-Online.biz | Rapidgator.net Rapidgator.netRapidgator.netRapidgator.net
 

Kommentare

  1. Geschrieben am 3. September 2017, 18:11 Uhr von Igor · #

    Episode 17 ist einfach falsch benannt. Es ist tatsächlich Folge 16.

  2. Geschrieben am 3. September 2017, 23:04 Uhr von Derrick · #

    Betrifft AIDA Release vom 03.09.2017:
    https://www.xrel.to/tv-nfo/1397383/Twin-Peaks-S03E17-German-DL-DUBBED-1080p-WebHD-x264-AIDA.html

    Es handelt sich hier um die Episode S03E16!

    AIDA hat das Release versehentlich als Episode 17 veröffentlicht. Der Inhalt dieser Episode ist jedoch Episode 16.

    https://www.fernsehserien.de/twin-peaks/folgen/3×16-twin-peaks-teil-16-1053154

    Also nicht wundern, falls AIDA die nächsten Releases als S03E16 und S03E18 veröffentlicht.

    “Das Geheimnis von Twin Peaks” sind auch die Uploads! Scherz ;)

  3. Geschrieben am 4. September 2017, 00:22 Uhr von Derrick · #

    Episode 16 noch nicht released! Sorry, passt nicht.

    AIDA hat da wohl die aktuelle Episode falsch betitelt?
    https://www.xrel.to/tv-nfo/1397383/Twin-Peaks-S03E17-German-DL-DUBBED-1080p-WebHD-x264-AIDA.html
    S03E17+S03E18 (German) laufen beide erst am Donnerstag, 07.09.2017 (Staffelfinale) auf Sky Atlantic.

    Es handelt sich um S03E16.
    Die Folge hat exakt den genannten Inhalt:
    https://www.fernsehserien.de/twin-peaks/folgen/3×16-twin-peaks-teil-16-1053154

    Die Einträge sind zu berichtigen:

    Episode 16 noch nicht released! → IST aktuell released!
    Twin.Peaks.S03E17.German.DL.DUBBED.1080p.WebHD.x264-AIDA NEU → Ist falsch!