SUPPORT HD-AREA

Filmwünsche können bei uns im Forum abgegeben werden

Wir Speichern Nicht




 
 
 
Top Releases
Cult.of.Chucky.UNRATED.2017....
Iron.Man.3.2013.MULTi.COMPLE...
Der.junge.Karl.Marx.2017.Ger...
Der.junge.Karl.Marx.2017.Ger...
Der.junge.Karl.Marx.Le.jeune...
1922.2017.German.DD51.DL.108...
Northpole.Weihnachten.steht....
Gluecklich.geschieden.Mama.g...
28.Soldiers.Die.Panzerschlac...
Life.Of.Pi.2012.MULTi.COMPLE...

Cinedubs
What.Happened.to.Monday.UNCU...
What.Happened.to.Monday.UNCU...
Overdrive.German.DL.AC3.720p...
Overdrive.German.DL.AC3.1080...
Jungle.2017.German.AC3.DL.10...
Jungle.2017.German.AC3.DL.72...
Casino.Undercover.2017.Germa...
Casino.Undercover.2017.Germa...
What.Happened.to.Monday.2017...
What.Happened.to.Monday.2017...

Neuerscheinungen 2016-17
It.Stains.the.Sands.Red.2016...
It.Stains.the.Sands.Red.2016...
Adaline.2015.DUAL.COMPLETE.B...
Bastard.2015.DUAL.COMPLETE.B...
Bastard.2015.German.DL.1080p...
El.Jeremias.2015.COMPLETE.BL...
Leprechaun.Origins.2014.DL.C...
1922.2017.German.720p.WebHD....
Bastard.2015.German.DL.1080p...
Bastard.2015.German.720p.Blu...

XXX
AussiePOV.16.11.17.Charlie.B...
KarupsHA.17.10.07.Ariel.Rose...
IHaveAWife.17.10.16.Jillian....
TrueAmateurs.17.08.16.Harlow...
ExxxtraSmall.17.10.12.Anya.S...
AussiePOV.15.07.27.Celine.Wa...
ElegantAnal.17.10.16.Annie.W...
ErotiqueTVLive.16.09.23.Kyli...
TuVenganza.17.10.11.Lady.Cru...
FakeTaxi.17.10.15.Julia.De.L...
UltraFilms.17.10.10.Maria.Pi...
FakehubOriginals.17.10.14.Ke...
FemJoy.17.10.15.Maria.Rya.Ho...
CzechCasting.17.10.14.Erin.4...
DeviantHardcore.16.11.03.Bre...
DarkX.17.10.12.Alina.West.An...
AussiePOV.15.08.08.Kiara.Lee...
FakeTaxi.17.10.12.Melody.Ple...
DDFBusty.17.10.15.Eva.Notty....
EvilAngel.New.Anal.Recruits....

3D
Fuerst.der.Finsternis.3D.201...
Fuerst.der.Finsternis.3D.201...
Patagonia.3D.Auf.den.Spuren....
Pirates.of.the.Caribbean.Sal...
Transformers.The.Last.Knight...
Faszination.Island.Das.Parad...
The.Final.Destination.4.3D.2...
The.Warriors.Gate.3D.2016.DU...
Wonder.Woman.3D.2017.MULTI.C...
Tutanchamun.3D.2012.COMPLETE...
Wonder.Woman.3D.HSBS.2017.Ge...
Wonder.Woman.3D.HOU.2017.Ger...
Pirates.of.the.Caribbean.Sal...
Pirates.of.the.Caribbean.Sal...
Die.Mumie.3D.2017.MULTi.COMP...

Old_Stuff
Dr.House.S01.German.720p.Blu...
Final.Call.-.Wenn.er.auflegt...
Chicago.Fire.S04.German.DL.1...
Chicago.Fire.S04.German.DL.7...
Conan.The.Barbarian.2011.Ger...
Conan.The.Barbarian.2011.Ger...
Die.Olsenbande.sieht.rot.197...
Olsenbande.steigt.aufs.Dach....
Malcolm.mittendrin.S05.Germa...
Malcolm.mittendrin.S04.Germa...
Life.of.Pi.2012.German.DTS.D...
Rest.Stop.Dont.Look.Back.UNC...
Koenig.der.Loewen.3D.German....
Schuesse.im.Dreiviertel.Takt...
Airwolf.S02.DUAL.BLURAY.COMP...

Musik
The.Beatles.Sgt.Peppers.Lone...
The.Prometheus.Dolby.Atmos.E...
R.E.M.OUT.OF.TIME.25th.Anniv...
The.Rolling.Stones.GRRR.BR-A...
Mussorgsky.Bilder.einer.Auss...
Yes.-.The.Yes.Album.Bluray-A...
Carlos.Heredia.Gypsy.Flamenc...
SPES.2014.complete.Bluray.un...
Carlos.Santana.Collection.19...
Pink.Floyd.The.Endless.River...
The.Hyperion.Romantic.Piano....
Putumayo.113.CD.Flac.lossles...

Filme
MotoGP.Moto2.Moto3.Saison.20...
It.Stains.the.Sands.Red.2016...
It.Stains.the.Sands.Red.2016...
Colony.S01.German.HDTV.1080p...
Marvels.Agents.of.S.H.I.E.L....
Marvels.Agents.of.S.H.I.E.L....
Killjoys.S03.German.DD51.Dub...
Killjoys.S03.GERMAN.720p.HDT...
NCIS.S14.GERMAN.DUBBED.DL.72...
Good.Behavior.S02.GERMAN.720...
Dice.S02.GERMAN.720p.HDTV.x2...
iZombie.S03.German.DD51.Dubb...
iZombie.S03.German.DD51.Dubb...
Babylon.Berlin.S01.GERMAN.10...
Babylon.Berlin.S01.GERMAN.72...
Ballers.S03.GERMAN.DUBBED.DL...
Ballers.S03.GERMAN.DUBBED.DL...
Der.Wilde.The.Wild.One.1953....
Nazi.Bauwerke.Utopie.und.Gro...
Copwatch.-.Polizeigewalt.im....
Fast.Food.auf.Raedern.-.Sieg...
Das.geheime.Leben.der.Aposte...
Gruesse.aus.Hollywood.1990.G...
Geliebter.Haustyrann.-.The.U...

 
 
L.A.Outlaws.Die.Gesetzlosen.3D.2016.German.DL.1080p.BluRay.x264-MOViEiT
Jahr: 2016
Genre: Action
Sprache: Deutsch DTS | Englisch DTS
Laufzeit: 1h 47mn
Bitrate: 6 089 Kbps
Format: MKV
Größe: 4.58 GiB
Release:

Beschreibung:

Sie nennen ihn Vigilante. Früher war er bei den Special Forces. Früher… Und jetzt hat er eine Mission. Er führt seinen persönlichen Kampf gegen Unrecht, Korruption und Drogen. Zusammen mit ein paar anderen Freunden ist er in der ganzen Welt unterwegs und macht mit seinen eigenen Gesetzen von Los Angeles bis in den Nahen Osten den Drogendealern und Gangstern das Leben schwer. Bis er bei einer Mission von seinen Feinden in die Falle gelockt wird. Seitdem hat man nichts mehr von ihm gesehen. Zehn Jahre später ist Vigilante immer noch verschwunden. Man findet heraus, dass er möglicherweise in Mexiko von einem Drogenkartell gefangen gehalten wird. Ohne Zögern beschließen seine engsten Freunde, ihn zu befreien und entwerfen einen genialen Plan. Angeführt von seinen Kumpels Wolfman und Kid startet das verrückte Team bis an die Zähne bewaffnet einen gnadenlosen Rachefeldzug.

 

Kultige Stars der 90er-Jahre versammeln sich zu einer B-Movie-Variante von “The Expendables”.



General
Unique ID                                : 185562038002654171511386965747245768720 (0x8B99F2D45FF7AD79900E31E7744FE010)
Complete name                            : mi-laoutlaw.3d-1080p.mkv
Format                                   : Matroska
Format version                           : Version 4 / Version 2
File size                                : 4.58 GiB
Duration                                 : 1h 47mn
Overall bit rate                         : 6 089 Kbps
Encoded date                             : UTC 2017-06-01 20:11:11
Writing application                      : mkvmerge v9.5.0 ('Quiet Fire') 64bit
Writing library                          : libebml v1.3.4 + libmatroska v1.4.5
DURATION                                 : 01:37:00.095000000
NUMBER_OF_FRAMES                         : 107
NUMBER_OF_BYTES                          : 445747
_STATISTICS_WRITING_APP                  : mkvmerge v9.5.0 ('Quiet Fire') 64bit
_STATISTICS_WRITING_DATE_UTC             : 2017-06-01 20:11:11
_STATISTICS_TAGS                         : BPS DURATION NUMBER_OF_FRAMES NUMBER_OF_BYTES

Video
ID                                       : 1
Format                                   : AVC
Format/Info                              : Advanced Video Codec
Format profile                           : High@L4.1
MultiView_Count                          : 2
MultiView_Layout                         : Side by Side (left eye first)
Format settings, CABAC                   : Yes
Format settings, ReFrames                : 5 frames
Codec ID                                 : V_MPEG4/ISO/AVC
Duration                                 : 1h 47mn
Bit rate                                 : 4 432 Kbps
Width                                    : 1 920 pixels
Height                                   : 808 pixels
Display aspect ratio                     : 2.40:1
Frame rate mode                          : Constant
Frame rate                               : 23.976 fps
Color space                              : YUV
Chroma subsampling                       : 4:2:0
Bit depth                                : 8 bits
Scan type                                : Progressive
Bits/(Pixel*Frame)                       : 0.119
Stream size                              : 3.33 GiB (73%)
Writing library                          : x264 core 150 r2833 df79067
Encoding settings                        : cabac=1 / ref=5 / deblock=1:0:0 / analyse=0x3:0x113 / me=umh / subme=7 / psy=1 / psy_rd=1.00:0.00 / mixed_ref=1 / me_range=16 / chroma_me=1 / trellis=1 / 8x8dct=1 / cqm=0 / deadzone=21,11 / fast_pskip=0 / chroma_qp_offset=-2 / threads=18 / lookahead_threads=3 / sliced_threads=0 / nr=0 / decimate=1 / interlaced=0 / bluray_compat=0 / constrained_intra=0 / bframes=3 / b_pyramid=2 / b_adapt=1 / b_bias=0 / direct=1 / weightb=1 / open_gop=0 / weightp=2 / keyint=250 / keyint_min=23 / scenecut=40 / intra_refresh=0 / rc_lookahead=40 / rc=crf / mbtree=1 / crf=20.0 / qcomp=0.60 / qpmin=0 / qpmax=69 / qpstep=4 / ip_ratio=1.40 / aq=1:1.00
Language                                 : English
Default                                  : Yes
Forced                                   : No
DURATION                                 : 01:47:42.701000000
NUMBER_OF_FRAMES                         : 154950
NUMBER_OF_BYTES                          : 3675158279
_STATISTICS_WRITING_APP                  : mkvmerge v9.5.0 ('Quiet Fire') 64bit
_STATISTICS_WRITING_DATE_UTC             : 2017-06-01 20:11:11
_STATISTICS_TAGS                         : BPS DURATION NUMBER_OF_FRAMES NUMBER_OF_BYTES

Audio #1
ID                                       : 2
Format                                   : DTS
Format/Info                              : Digital Theater Systems
Mode                                     : 16
Format settings, Endianness              : Big
Codec ID                                 : A_DTS
Duration                                 : 1h 47mn
Bit rate mode                            : Constant
Bit rate                                 : 768 Kbps
Channel(s)                               : 6 channels
Channel positions                        : Front: L C R, Side: L R, LFE
Sampling rate                            : 48.0 KHz
Bit depth                                : 24 bits
Compression mode                         : Lossy
Stream size                              : 592 MiB (13%)
Language                                 : German
Default                                  : Yes
Forced                                   : No

Audio #2
ID                                       : 3
Format                                   : DTS
Format/Info                              : Digital Theater Systems
Mode                                     : 16
Format settings, Endianness              : Big
Codec ID                                 : A_DTS
Duration                                 : 1h 47mn
Bit rate mode                            : Constant
Bit rate                                 : 768 Kbps
Channel(s)                               : 6 channels
Channel positions                        : Front: L C R, Side: L R, LFE
Sampling rate                            : 48.0 KHz
Bit depth                                : 24 bits
Compression mode                         : Lossy
Stream size                              : 592 MiB (13%)
Language                                 : English
Default                                  : No
Forced                                   : No

Text
ID                                       : 4
Format                                   : VobSub
Codec ID                                 : S_VOBSUB
Codec ID/Info                            : The same subtitle format used on DVDs
Language                                 : German
Default                                  : Yes
Forced                                   : Yes


Download:
Share Online | Uploaded Share Online | UploadedShare Online | UploadedShare Online | Uploaded
 

Kommentare