Filecrypt zeigt vereinzelt Files als "n/a". Die Downloads sind trotzdem komplett.

DNS SERVER AENDERNum der staatlichen Zensur zu umgehen. Sollten wir von eurem Provider geseprrt werden, nutzt den TOR BROWSER oder ändert euren DNS SERVER.

Filmwünsche können bei uns im Forum abgegeben werden

Wir Speichern Nicht




 
 
 
Top Releases
Cam.2018.German.DL.1080p.WEB...
Cam.2018.German.DL.720p.WEB....
Teen.Titans.Go.To.the.Movies...
The.Ballad.of.Buster.Scruggs...
Teen.Titans.Go.To.the.Movies...
The.Ballad.of.Buster.Scruggs...
Logan.The.Wolverine.2017.NOI...
Mandy.2018.German.DL.1080p.B...
Mandy.2018.MULTi.COMPLETE.BL...
Zoe.2018.German.AC3.DL.1080p...

Cinedubs
Christopher.Robin.German.DL....
Christopher.Robin.German.DL....
A.Star.Is.Born.German.DL.AC3...
A.Star.Is.Born.German.DL.AC3...
Mission.Impossible.Fallout.G...
Mission.Impossible.Fallout.G...
Sicario.2.2018.German.DL.AC3...
Juliet.Naked.2018.GERMAN.DL....
Juliet.Naked.2018.GERMAN.DL....
10x10.2018.German.AC3D.DL.10...

Neuerscheinungen 2017-18
Terminal.Rache.war.nie.schoe...
10x10.2018.MULTi.COMPLETE.BL...
In.Darkness.Die.Wahrheit.lie...
In.Darkness.Die.Wahrheit.lie...
Terminal.Rache.war.nie.schoe...
Terminal.Rache.war.nie.schoe...
Christmas.Wedding.Planner.20...
Christmas.Wedding.Planner.20...
Prinzessinnentausch.2018.Ger...
Prinzessinnentausch.2018.Ger...

XXX
LustyGrandmas.18.04.02.Sila....
PlayboyPlus.18.10.29.Jenessa...
Old-n-Young.18.10.27.Blue.Sk...
NewSensations.18.10.31.Emily...
OnlyBlowJob.18.10.04.Rose.XX...
PlayboyPlus.18.10.28.Playmat...
LustyGrandmas.18.04.08.Viol....
PixAndVideo.18.10.29.Marica....
Passion-HD.18.10.31.Megan.Wi...
NHLPCentral.18.10.31.Tindra....
Nubiles.18.10.28.Monna.Pleas...
NetGirl.18.10.24.Geneva.XXX....
LustyGrandmas.18.03.29.Dolly...
GirlsOutWest.18.10.31.Lilo.X...
NetVideoGirls.18.10.16.Melis...
KarupsHA.18.10.31.Casey.Cumz...
GirlsDoPorn.E482.21.Years.Ol...
Nubiles.18.10.28.Cleo.Mijare...
LustyGrandmas.18.03.15.Saman...
GirlsDoPorn.E481.19.Years.Ol...

3D
Skyscraper.3D.2018.MULTi.COM...
Ant-Man.And.The.Wasp.3D.2018...
Ant.Man.and.the.Wasp.3D.2018...
Die.Unglaublichen.2.3D.2018....
Die.Unglaublichen.2.2018.3D....
Die.Unglaublichen.2.2018.3D....
Sharknado.6.The.Last.One.3D....
Deep.Kleine.Helden.der.Tiefs...
Deep.3D.2017.MULTI.COMPLETE....
Detective.Dee.und.die.Legend...
Detective.Dee.und.die.Legend...
Skyscraper.3D.German.DL.AC3....
Ant-Man.and.the.Wasp.2018.3D...
Jurassic.World.Das.gefallene...
Jurassic.World.Das.gefallene...

Old_Stuff
Detective.Dee.und.das.Geheim...
Detective.Dee.Und.Der.Fluch....
Ghost.Rider.Spirit.of.Vengea...
Species.IV.Das.Erwachen.2007...
Species.IV.Das.Erwachen.2007...
Hotel.Transsilvanien.2012.Ge...
The.Dead.2010.German.DL.1080...
The.Dead.2.India.2013.German...
Britney.Spears.Live.The.Femm...
Buffy.The.Vampire.Slayer.199...
IMAX.Ride.Around.The.World.2...
Schimanski.-.Duisburg.Ruhror...
Akte.X.S02.German.DTS.DL.108...
How.I.Met.Your.Mother.S02.Ge...
Akte.X.S01.German.DTS.DL.108...

Filme
Skyscraper.2018.German.DL.21...
Skyscraper.2018.German.DL.21...
Slender.Man.2018.German.AC3....
Die.Pest.S01.D01.MULTi.COMPL...
Clive.Barkers.Book.of.Blood....
Chuka.1967.German.Uncut.AC3D...
Romeo.Is.Bleeding.1993.Germa...
Solo.1996.German.AC3D.DL.108...
To.Kill.a.Man.Rache.ist.bitt...
TJ.Next.Generation.2007.Germ...
TO.A.Space.Fantasy.2009.Germ...
Urlaub.in.Hollywood.1945.Ger...
Mamma.Mia.Here.We.Go.Again.2...
Tinkerbell.2008.German.DTS.D...
Tintenherz.German.DL.1080p.B...
Tisch.und.Bett.1970.German.1...
The.Legend.of.Hercules.2014....
Maleika.2017.GERMAN.DOKU.216...
The.Darkest.Minds.Die.Ueberl...
Aus.dem.Dschungel.in.den.Dsc...
Der.Grosse.Diktator.1940.Ger...
Plaesier.1952.German.AC3D.DL...
Die.Truman.Show.1998.German....
Crocodile.Dundee.Extended.Cu...

 
 
Sherlock.S04.GERMAN.DUBBED.720p.BLURAY.x264-ZZGtv
Jahr: 2017
Genre: Krimi | Drama | Mystery
Sprache: Deutsch AC3
Laufzeit: 1h30min je Folge
Bitrate: 2100 Kbps
Format: MKV
Größe: 1,5 GB je Folge
Release:

Beschreibung:

Sherlock Holmes (Benedict Cumberbatch) ist ein genialer Berater für die britische Polizei, doch er ist auch unglaublich arrogant, selbstgerecht und kann mit Menschen nicht umgehen. Ausgerechnet mit solch einem Widerling zieht der ehemalige Militärarzt Dr. John Watson (Martin Freeman) zusammen. Und nicht nur das: Gemeinsam lösen sie Fälle, bei denen Scotland Yard nicht weiterkommt. Dabei zeigt sich das Genie des sonderbaren Soziopathen Holmes - jedes noch so kleine Detail kann er in einen Gesamtkontext bringen, was ihn auf der Suche nach der Lösung eines Falls schnell weiterbringen kann. Doch schnell zieht Holmes die Aufmerksamkeit eines unglaublichen Verbrechergenies, des geheimnisvollen Dr. Moriarty (Andrew Scott), auf sich.

 

enthaltene Folgen:

Sherlock.S04E01.Die.sechs.Thatchers.GERMAN.DUBBED.720p.BLURAY.x264-ZZGtv

Sherlock.S04E02.Der.luegende.Detektiv.GERMAN.DUBBED.720p.BLURAY.x264-ZZGtv NEU



General
Complete name                            : Sherlock.S04E01.Die.sechs.Thatchers.GERMAN.DUBBED.720p.BLURAY.x264-ZZGtv\zzgtv-sherlock-s04e01.mkv
Format                                   : Matroska
Format version                           : Version 2
File size                                : 1.45 GiB
Duration                                 : 1h 28mn
Overall bit rate                         : 2 338 Kbps
Encoded date                             : UTC 2017-06-04 15:42:18
Writing application                      : mkvmerge v3.1.0 ('HELLO KITTY') built on Feb 16 2010 03:12:16
Writing library                          : libebml v0.7.9 + libmatroska v0.8.1

Video
ID                                       : 1
Format                                   : AVC
Format/Info                              : Advanced Video Codec
Format profile                           : High@L4.1
Format settings, CABAC                   : Yes
Format settings, ReFrames                : 5 frames
Codec ID                                 : V_MPEG4/ISO/AVC
Duration                                 : 1h 28mn
Bit rate                                 : 2 100 Kbps
Width                                    : 1 280 pixels
Height                                   : 720 pixels
Display aspect ratio                     : 16:9
Frame rate mode                          : Constant
Frame rate                               : 25.000 fps
Original frame rate                      : 23.976 fps
Color space                              : YUV
Chroma subsampling                       : 4:2:0
Bit depth                                : 8 bits
Scan type                                : Progressive
Bits/(Pixel*Frame)                       : 0.091
Stream size                              : 1.30 GiB (90%)
Writing library                          : x264 core 148 r2762 90a61ec
Encoding settings                        : cabac=1 / ref=5 / deblock=1:-3:-3 / analyse=0x3:0x113 / me=umh / subme=7 / psy=1 / psy_rd=1.00:0.00 / mixed_ref=1 / me_range=16 / chroma_me=1 / trellis=1 / 8x8dct=1 / cqm=0 / deadzone=21,11 / fast_pskip=0 / chroma_qp_offset=-2 / threads=12 / lookahead_threads=2 / sliced_threads=0 / nr=0 / decimate=1 / interlaced=0 / bluray_compat=0 / constrained_intra=0 / bframes=3 / b_pyramid=2 / b_adapt=1 / b_bias=0 / direct=1 / weightb=1 / open_gop=0 / weightp=2 / keyint=250 / keyint_min=23 / scenecut=40 / intra_refresh=0 / rc_lookahead=40 / rc=crf / mbtree=1 / crf=20.0 / qcomp=0.60 / qpmin=0 / qpmax=69 / qpstep=4 / ip_ratio=1.40 / aq=1:1.00
Default                                  : Yes
Forced                                   : No

Audio
ID                                       : 2
Format                                   : AC-3
Format/Info                              : Audio Coding 3
Mode extension                           : CM (complete main)
Format settings, Endianness              : Big
Codec ID                                 : A_AC3
Duration                                 : 1h 28mn
Bit rate mode                            : Constant
Bit rate                                 : 192 Kbps
Channel(s)                               : 2 channels
Channel positions                        : Front: L R
Sampling rate                            : 48.0 KHz
Bit depth                                : 16 bits
Compression mode                         : Lossy
Stream size                              : 122 MiB (8%)
Default                                  : Yes
Forced                                   : No



Download:
Share-Online.biz Share-Online.bizShare-Online.bizShare-Online.biz | Uploaded.net Uploaded.netUploaded.netUploaded.net
 

Kommentare