Filmwünsche können bei uns im Forum abgegeben werden

Wir Speichern Nicht




 
 
 
Top Releases
Die.Tribute.von.Panem.Catchi...
The.Accountant.2016.German.D...
X.Men.Zukunft.ist.Vergangenh...
Promised.Land.2012.German.DL...
Oblivion.2013.German.DL.1080...
Monster.Hunt.2015.German.DL....
The.Expendables.3.2014.THEAT...
Ares-Der.letzte.seiner.Art.2...
Ares-Der.letzte.seiner.Art.2...
Thank.You.for.Bombing.2015.G...

Cinedubs
Dunkirk.2017.IMAX.German.AC3...
Dunkirk.2017.IMAX.German.AC3...
Dunkirk.2017.IMAX.German.AC3...
Schneemann.German.DL.AC3.Dub...
ES.2017.German.DL.AC3.Dubbed...
Dunkirk.2017.German.AC3MD.DL...
The.Lego.Ninjago.Movie.2017....
The.Lego.Ninjago.Movie.2017....
Mother.German.DL.AC3.Dubbed....
Mother.German.DL.AC3.Dubbed....

Neuerscheinungen 2016-17
Leatherface.2017.German.720p...
Leatherface.2017.German.DL.1...
Deep.Purple.From.Here.to.inF...
DJ.Bobo.Mystorial.Live.2017....
Maneater.Der.Tod.aus.der.Kae...
Rendel.2017.German.AC3.DL.10...
Geliebte.Schwester.2017.Germ...
Mein.Freund.der.Dino.2017.Ge...
Rico.Oskar.und.der.Diebstahl...
Haunting.at.Foster.Cabin.201...

XXX
PlayboyPlus.17.11.26.Mashup....
QuebecProductions.15.12.04.A...
PlumperPass.17.11.29.Shanice...
PornMegaLoad.17.11.28.Kora.K...
OfficeObsession.17.11.29.Sof...
PornMegaLoad.17.11.26.Tigerr...
PremiumBukkake.17.11.20.Luna...
PremiumBukkake.17.11.22.Luna...
PremiumBukkake.17.11.17.Luna...
Petite.17.11.25.Liv.Revamped...
NuruMassage.17.12.01.Raven.H...
PlumperPass.17.12.01.Kat.Bai...
PixAndVideo.17.12.01.Kiara.N...
PornMegaLoad.17.11.27.Kandi....
PlayboyPlus.17.12.03.Mashup....
PremiumBukkake.17.10.04.Tina...
QuebecProductions.15.11.27.A...
PornFidelity.E718.Anna.Bell....
Nubiles.17.12.03.Roxy.Romero...
OldYoungLesbianLove.17.11.27...

3D
Walhalla.Rising.3D.2009.Germ...
Spider.Man.Homecoming.3D.Ger...
Valerian.Die.Stadt.der.tause...
Valerian.Die.Stadt.der.tause...
Valerian.Die.Stadt.der.tause...
Valerian.Die.Stadt.der.tause...
Warcraft.The.Beginning.3D.HS...
Transformers.The.Last.Knight...
Warcraft.The.Beginning.3D.HO...
Die.Schneekoenigin.3.Feuer.u...
Die.Schneekoenigin.3.Feuer.u...
Terra.X.Dracula.-.Die.wahre....
Abenteuer.Safari.3D.Safari.P...
Die.Schneekoenigin.3.3D.2016...
Spider.Man.Homecoming.3D.201...

Old_Stuff
Hana-bi.Feuerblume.1997.Germ...
Memphis.Belle.1990.German.DL...
Im.Schatten.des.Mondes.Germa...
Tomb.Raider.2001.DUAL.COMPLE...
Tomb.Raider.Die.Wiege.des.Le...
Party.Animals.3.German.AC3.7...
The.Rocky.Horror.Picture.Sho...
Die.Fliege.1986.German.DTS.1...
Mimic.2.2001.German.DD5.1D.D...
The.Tournament.UNCUT.2009.Ge...
Dr.House.S08.German.720p.Blu...
Dr.House.S07.German.720p.Blu...
Dr.House.S06.German.720p.Blu...
Dr.House.S05.German.720p.Blu...
Dr.House.S04.German.720p.Blu...

Musik
Remote.Galaxy.by.Flint.Juven...
Trondheim.Solistene.Souvenir...
The.Beatles.Sgt.Peppers.Lone...
The.Prometheus.Dolby.Atmos.E...
R.E.M.OUT.OF.TIME.25th.Anniv...
The.Rolling.Stones.GRRR.BR-A...
Mussorgsky.Bilder.einer.Auss...
Yes.-.The.Yes.Album.Bluray-A...
Carlos.Heredia.Gypsy.Flamenc...
SPES.2014.complete.Bluray.un...
Carlos.Santana.Collection.19...
Pink.Floyd.The.Endless.River...
The.Hyperion.Romantic.Piano....
Putumayo.113.CD.Flac.lossles...
UFO.Let.It.Roll.Limited.Edit...

Filme
Mimzy.Meine.Freundin.aus.der...
Supernatural.S11.COMPLETE.Ge...
No.Problem.2010.German.1080p...
Land.of.the.Dead.2K.Remaster...
Ray.Donovan.S05.GERMAN.DUBBE...
Ray.Donovan.S05.GERMAN.DUBBE...
No.Saints.For.Sinners.2011.G...
Supernatural.S12.GERMAN.DUBB...
Supernatural.S12.GERMAN.DUBB...
North.and.South.Die.Schlacht...
North.and.South.Die.Schlacht...
A.Single.Man.German.2009.DL....
A.Touch.of.Sin.2013.German.A...
Express.in.die.Hoelle.1985.G...
Family.For.Christmas.2015.Ge...
A.Star.Is.Born.1976.German.D...
A.Christmas.Carol.Die.drei.W...
A.Single.Shot.2013.German.DL...
Hubert.und.Staller.S06D01-4....
The.Keeper.2009.iNTERNAL.MUL...
To.Wong.Foo.Thanks.for.Every...
Express.in.die.Hoelle.1985.G...
Express.in.die.Hoelle.1985.G...
The.Walking.Dead.S08.GERMAN....

 
 
The.LEGO.Batman.Movie.2017.3D.HOU.German.DTS.DL.1080p.BluRay.x264-LeetHD
Jahr: 2017
Genre: Animation, Action, Adventure
Sprache: Deutsch DTS | Englisch DTS
Laufzeit: 1h 44mn
Bitrate: 9 094 Kbps
Format: MKV
Größe: 6.64 GiB
Release:

Beschreibung:

Augenzwinkernde Respektlosigkeit hat ‘The LEGO Movie’ zu seinem weltweiten Erfolg verholfen – kein Wunder also, dass die selbsternannte Hauptfigur jenes Ensembles – LEGO Batman – jetzt die Hauptrolle in einem eigenen Leinwandabenteuer übernimmt. Doch in ‘Gotham’ stehen weitreichende Veränderungen bevor, und wenn Batman verhindern will, dass der Joker sich die Stadt durch eine feindliche Übernahme einverleibt, muss er vielleicht endlich einmal sein Image vom einsamen Rächer revidieren und die Unterstützung anderer annehmen. Außerdem könnte es ihm auch nicht schaden, wenn er alles etwas lockerer sehen würde.



General
Unique ID                                : 181155290605552646910425433534760793962 (0x88493D6885D2C739AD456E86782CB76A)
Complete name                            : lhd-legobatman.hou-1080.mkv
Format                                   : Matroska
Format version                           : Version 4 / Version 2
File size                                : 6.64 GiB
Duration                                 : 1h 44mn
Overall bit rate                         : 9 094 Kbps
Movie name                               : The Lego Batman Movie HOU
Encoded date                             : UTC 2017-06-08 12:01:37
Writing application                      : mkvmerge v9.7.1 ('Pandemonium') 64bit
Writing library                          : libebml v1.3.4 + libmatroska v1.4.5
DURATION                                 : 01:40:50.336000000
NUMBER_OF_FRAMES                         : 12
NUMBER_OF_BYTES                          : 52454
_STATISTICS_WRITING_APP                  : mkvmerge v9.7.1 ('Pandemonium') 64bit
_STATISTICS_WRITING_DATE_UTC             : 2017-06-08 12:01:37
_STATISTICS_TAGS                         : BPS DURATION NUMBER_OF_FRAMES NUMBER_OF_BYTES

Video
ID                                       : 1
Format                                   : AVC
Format/Info                              : Advanced Video Codec
Format profile                           : High@L4.1
MultiView_Count                          : 2
MultiView_Layout                         : Top-Bottom (left eye first)
Format settings, CABAC                   : Yes
Format settings, ReFrames                : 4 frames
Codec ID                                 : V_MPEG4/ISO/AVC
Duration                                 : 1h 44mn
Bit rate                                 : 5 895 Kbps
Width                                    : 1 920 pixels
Height                                   : 1 080 pixels
Display aspect ratio                     : 16:9
Frame rate mode                          : Constant
Frame rate                               : 23.976 fps
Color space                              : YUV
Chroma subsampling                       : 4:2:0
Bit depth                                : 8 bits
Scan type                                : Progressive
Bits/(Pixel*Frame)                       : 0.119
Stream size                              : 4.30 GiB (65%)
Title                                    : 3D Half-T&B (x264 high@L4.1 CRF 18 preset slow)
Writing library                          : x264 core 148 r2744 b97ae06
Encoding settings                        : cabac=1 / ref=4 / deblock=1:0:0 / analyse=0x3:0x113 / me=hex / subme=8 / psy=1 / psy_rd=1.00:0.00 / mixed_ref=1 / me_range=16 / chroma_me=1 / trellis=2 / 8x8dct=1 / cqm=0 / deadzone=21,11 / fast_pskip=1 / chroma_qp_offset=-2 / threads=12 / lookahead_threads=2 / sliced_threads=0 / nr=0 / decimate=1 / interlaced=0 / bluray_compat=0 / constrained_intra=0 / bframes=3 / b_pyramid=2 / b_adapt=1 / b_bias=0 / direct=3 / weightb=1 / open_gop=0 / weightp=2 / keyint=250 / keyint_min=23 / scenecut=40 / intra_refresh=0 / rc_lookahead=50 / rc=crf / mbtree=1 / crf=18.0 / qcomp=0.60 / qpmin=0 / qpmax=69 / qpstep=4 / vbv_maxrate=62500 / vbv_bufsize=78125 / crf_max=0.0 / nal_hrd=none / filler=0 / frame-packing=4 / ip_ratio=1.40 / aq=1:1.00
Language                                 : German
Default                                  : Yes
Forced                                   : No
Matrix coefficients                      : BT.709

Audio #1
ID                                       : 2
Format                                   : DTS
Format/Info                              : Digital Theater Systems
Mode                                     : 16
Format settings, Endianness              : Big
Codec ID                                 : A_DTS
Duration                                 : 1h 44mn
Bit rate mode                            : Constant
Bit rate                                 : 1 509 Kbps
Channel(s)                               : 6 channels
Channel positions                        : Front: L C R, Side: L R, LFE
Sampling rate                            : 48.0 KHz
Bit depth                                : 16 bits
Compression mode                         : Lossy
Stream size                              : 1.10 GiB (17%)
Language                                 : German
Default                                  : Yes
Forced                                   : No

Audio #2
ID                                       : 3
Format                                   : DTS
Format/Info                              : Digital Theater Systems
Mode                                     : 16
Format settings, Endianness              : Big
Codec ID                                 : A_DTS
Duration                                 : 1h 44mn
Bit rate mode                            : Constant
Bit rate                                 : 1 509 Kbps
Channel(s)                               : 6 channels
Channel positions                        : Front: L C R, Side: L R, LFE
Sampling rate                            : 48.0 KHz
Bit depth                                : 16 bits
Compression mode                         : Lossy
Stream size                              : 1.10 GiB (17%)
Language                                 : English
Default                                  : No
Forced                                   : No

Text
ID                                       : 4
Format                                   : PGS
Muxing mode                              : zlib
Codec ID                                 : S_HDMV/PGS
Codec ID/Info                            : The same subtitle format used on BDs/HD-DVDs
Title                                    : German forced 3D
Language                                 : German
Default                                  : Yes
Forced                                   : Yes


Download:
Share Online | Uploaded Share Online | UploadedShare Online | UploadedShare Online | Uploaded
 

Kommentare