Wir sind wenn hd-area.org mal ausfällt unter hd-area.biz erreichbar


Hier klickenfür Informationen zur Umgehung staatlicher Zensurmaßnahmen




Filmwünsche können bei uns im Forum abgegeben werden

Wir Speichern Nicht




 
 
 
Top Releases
Live.by.Night.2016.German.Du...
I.am.not.your.Negro.2016.Ger...
I.am.not.your.Negro.2016.Ger...
The.Devils.Candy.2015.German...
Erpressung.Wie.viel.ist.dein...
Hell.or.High.Water.2016.Germ...
Sicario.2015.German.DTS.DL.1...
Loving.2016.German.DTS.DL.10...
Der.grosse.Trip.Wild.2014.Ge...
Der.grosse.Trip.Wild.2014.Ge...

Cinedubs
King.Arthur.Legend.of.the.Sw...
King.Arthur.Legend.of.the.Sw...
Chips.German.DL.AC3.Dubbed.7...
Chips.German.DL.AC3.Dubbed.1...
Kong.Skull.Island.German.DL....
Kong.Skull.Island.German.DL....
Resident.Evil.The.Final.Chap...
Resident.Evil.The.Final.Chap...
Resident.Evil.The.Final.Chap...
Resident.Evil.Vendetta.Germa...

Neuerscheinungen 2016-17
Voice.from.the.Stone.Ruf.aus...
Voice.from.the.Stone.Ruf.aus...
The.Shadow.Man.2017.German.D...
Erpressung.Wie.viel.ist.dein...
Nur.48.Stunden.German.1982.D...
Tokyo.Grand.Guignol.2015.COM...
Bon.Voyage.ihr.Idioten.2013....
The.Binding.2016.German.DL.1...
The.Binding.2016.German.720p...
Moontrap.Angriffsziel.Erde.2...

XXX
Penthouse.16.05.01.Crista.Mo...
Penthouse.16.05.02.Molly.Rae...
PascalsSubSluts.17.06.22.Lau...
MikaelaWitt.17.05.19.Foot.Fe...
Nubiles.17.06.23.Krystyna.Pu...
PlumperPass.17.06.23.Veronic...
PixAndVideo.17.06.23.Darcia....
Penthouse.16.05.02.Nicole.Gr...
PornMegaLoad.17.06.21.Sherry...
NuruMassage.17.06.21.Avi.Lov...
MomKnowsBest.17.06.23.Caroli...
PornstarPlatinum.17.06.22.Al...
NaughtyOffice.17.06.23.Natal...
Porntugal.15.12.04.Susana.Me...
Porntugal.15.12.02.Rebecca.P...
Passion-HD.17.06.24.Kenzie.K...
Nubiles.17.06.21.Krystyna.Lo...
Porntugal.15.12.05.Scarlett....
NubileFilms.17.06.21.Melody....
MissaX.17.06.02.Penny.Pax.Th...

3D
Storm.Surfers.3D.2012.Bluray...
Die.irre.Heldentour.des.Bill...
Die.Bestimmung.Insurgent.3D....
Die.Bestimmung.Insurgent.3D....
The.Great.Wall.3D.2016.multi...
San.Andreas.3D.2015.German.D...
Mojin.The.Lost.Legend.3D.201...
The.LEGO.Batman.Movie.3D.201...
The.LEGO.Batman.Movie.2017.3...
The.LEGO.Batman.Movie.2017.3...
Kraftwerk.3D.12345678.2016.2...
Die.irre.Heldentour.des.Bill...
Die.irre.Heldentour.des.Bill...
L.A.Outlaws.Die.Gesetzlosen....
L.A.Outlaws.Die.Gesetzlosen....

Old_Stuff
Lie.With.Me.Liebe.Mich.2005....
Zurueck.zu.Dir.2000.GERMAN.A...
P.O.E.-.Project.of.Evil.UNCU...
Fields.of.the.Dead.3D.2014.D...
Feuerwerk.am.helllichten.Tag...
Pitch.Perfect.2012.German.DT...
Das.A-Team.S05.German.DUBBED...
Das.A-Team.S05.German.DUBBED...
House.Rules.for.Bad.Girls.3D...
Return.To.Nuke.Em.High.Volum...
Dragons.of.Camelot.2014.DUAL...
Amy.Sie.oeffnet.das.Tor.zur....
13.Eerie.We.Prey.For.You.UNC...
Codename.U.N.C.L.E.2015.MULT...
Halloween.Resurrection.2002....

Musik
The.Beatles.Sgt.Peppers.Lone...
The.Prometheus.Dolby.Atmos.E...
R.E.M.OUT.OF.TIME.25th.Anniv...
The.Rolling.Stones.GRRR.BR-A...
Mussorgsky.Bilder.einer.Auss...
Yes.-.The.Yes.Album.Bluray-A...
Carlos.Heredia.Gypsy.Flamenc...
SPES.2014.complete.Bluray.un...
Carlos.Santana.Collection.19...
Pink.Floyd.The.Endless.River...
The.Hyperion.Romantic.Piano....
Putumayo.113.CD.Flac.lossles...

Filme
Die.Konfirmation.2017.GERMAN...
Chaos.unterm.Korb.1995.Germa...
Crossroads.1986.German.AC3D....
Fist.of.God.2014.German.1080...
Fist.of.God.2014.German.720p...
Kong.Skull.Island.2017.COMPL...
Best.of.the.Best.3.No.Turnin...
Superstore.S01-S02.German.DL...
Superstore.S01-S02.German.DL...
Fear.The.Walking.Dead.S03.Ge...
American.Crime.S03.GERMAN.DL...
Best.of.the.Best.3.No.Turnin...
Best.of.the.Best.3.No.Turnin...
American.Crime.S03.GERMAN.72...
Pretty.Little.Liars.S07.Germ...
Preacher.S02.GERMAN.DL.DUBBE...
Preacher.S02.GERMAN.Dubbed.7...
GLOW.S01.COMPLETE.German.DL....
Gotham.S03.GERMAN.DUBBED.DL....
Gotham.S03.GERMAN.DUBBED.DL....
Vampire.Diaries.S08.GERMAN.D...
The.Vampire.Diaries.S08.GERM...
Angie.Tribeca.S03.GERMAN.DUB...
The.Flash.S03.GERMAN.DUBBED....

 
 
Power.Rangers.2017.GERMAN.DL.MiCDUBBED.720p.WEBDL.x264-SPECTRE
Jahr: 2017
Genre: Action, Adventure, Sci-Fi
Sprache: Deutsch AC3 | Englisch AC3
Laufzeit: 2h 3mn
Bitrate: 3 313 Kbps
Format: MKV
Größe: 2.87 GiB
Release:

Beschreibung:

Fünf Teenager, die unterschiedlicher nicht sein könnten: Jason (Dacre Montgomery), Kimberley (Naomi Scott), Billy (RJ Cyler), Trini (Becky G.) und Zack (Ludi Lin) haben nichts weiter gemeinsam, als auf dieselbe High-School im Städtchen ‘Angel Grove’ zu gehen. Als Jason und Billy durch Zufall auf etwas stoßen, das sie für uralte Fossilien halten, erwecken sie eine außerirdische Macht, die die Menschheit auslöschen will. Die Ereignisse überschlagen sich und schweißen die Teenager zusammen, als sie plötzlich auf unerklärliche Weise Superkräfte besitzen! Dass ihre neu erworbenen Fähigkeiten nicht nur ein Spiel sind, stellt sich schnell heraus, als ihnen Zordon, der einstige Red Ranger als Hologramm erscheint. Von ihm erfahren sie, dass die Außerirdische Rita Repulsa (Elizabeth Banks) mit ihrer Alien-Armee einen Angriff auf die Erde plant. Um die Welt retten zu können, müssen die fünf nun innerhalb weniger Tage lernen, was normalerweise Jahre dauert: echte ‘Power Rangers’ zu werden…



Unique ID                                : 231926463170547925190684069196659457681 (0xAE7B697AE71F0BB9BD71F311D4047E91)
Complete name                            : power.rangers.720-spectre.mkv
Format                                   : Matroska
Format version                           : Version 4 / Version 2
File size                                : 2.87 GiB
Duration                                 : 2h 3mn
Overall bit rate                         : 3 313 Kbps
Encoded date                             : UTC 2017-06-12 23:16:30
Writing application                      : mkvmerge v8.0.0 ('Til The Day That I Die') 64bit
Writing library                          : libebml v1.3.1 + libmatroska v1.4.2
DURATION                                 : 02:03:57.408000000
NUMBER_OF_FRAMES                         : 232419
NUMBER_OF_BYTES                          : 178497792
_STATISTICS_WRITING_APP                  : mkvmerge v8.0.0 ('Til The Day That I Die') 64bit
_STATISTICS_WRITING_DATE_UTC             : 2017-06-12 23:16:30
_STATISTICS_TAGS                         : BPS DURATION NUMBER_OF_FRAMES NUMBER_OF_BYTES

Video
ID                                       : 1
Format                                   : AVC
Format/Info                              : Advanced Video Codec
Format profile                           : High@L4.1
Format settings, CABAC                   : Yes
Format settings, ReFrames                : 4 frames
Codec ID                                 : V_MPEG4/ISO/AVC
Duration                                 : 2h 3mn
Bit rate                                 : 2 800 Kbps
Width                                    : 1 280 pixels
Height                                   : 528 pixels
Display aspect ratio                     : 2.40:1
Frame rate mode                          : Constant
Frame rate                               : 23.976 fps
Color space                              : YUV
Chroma subsampling                       : 4:2:0
Bit depth                                : 8 bits
Scan type                                : Progressive
Bits/(Pixel*Frame)                       : 0.173
Stream size                              : 2.31 GiB (81%)
Title                                    : 720p
Writing library                          : x264 core 142 r2479 dd79a61
Encoding settings                        : cabac=1 / ref=1 / deblock=1:0:0 / analyse=0x3:0x113 / me=hex / subme=2 / psy=1 / psy_rd=1.00:0.00 / mixed_ref=0 / me_range=16 / chroma_me=1 / trellis=0 / 8x8dct=1 / cqm=0 / deadzone=21,11 / fast_pskip=1 / chroma_qp_offset=0 / threads=12 / lookahead_threads=4 / sliced_threads=0 / nr=0 / decimate=1 / interlaced=0 / bluray_compat=0 / constrained_intra=0 / bframes=3 / b_pyramid=2 / b_adapt=1 / b_bias=0 / direct=1 / weightb=1 / open_gop=0 / weightp=1 / keyint=240 / keyint_min=24 / scenecut=40 / intra_refresh=0 / rc_lookahead=10 / rc=abr / mbtree=1 / bitrate=2800 / ratetol=1.0 / qcomp=0.60 / qpmin=0 / qpmax=69 / qpstep=4 / vbv_maxrate=62500 / vbv_bufsize=78125 / nal_hrd=none / filler=0 / ip_ratio=1.40 / aq=1:1.00
Language                                 : English
Default                                  : Yes
Forced                                   : Yes
Color primaries                          : BT.709
Transfer characteristics                 : BT.709
Matrix coefficients                      : BT.709
DURATION                                 : 02:03:57.389000000
NUMBER_OF_FRAMES                         : 178319
NUMBER_OF_BYTES                          : 2542840013
_STATISTICS_WRITING_APP                  : mkvmerge v8.0.0 ('Til The Day That I Die') 64bit
_STATISTICS_WRITING_DATE_UTC             : 2017-06-12 23:16:30
_STATISTICS_TAGS                         : BPS DURATION NUMBER_OF_FRAMES NUMBER_OF_BYTES

Audio #1
ID                                       : 2
Format                                   : AC-3
Format/Info                              : Audio Coding 3
Mode extension                           : CM (complete main)
Format settings, Endianness              : Big
Codec ID                                 : A_AC3
Duration                                 : 2h 3mn
Bit rate mode                            : Constant
Bit rate                                 : 192 Kbps
Channel(s)                               : 2 channels
Channel positions                        : Front: L R
Sampling rate                            : 48.0 KHz
Bit depth                                : 16 bits
Compression mode                         : Lossy
Delay relative to video                  : -83ms
Stream size                              : 170 MiB (6%)
Language                                 : German
Default                                  : Yes
Forced                                   : Yes
DURATION                                 : 02:03:57.472000000
NUMBER_OF_FRAMES                         : 232421
NUMBER_OF_BYTES                          : 356998656
_STATISTICS_WRITING_APP                  : mkvmerge v8.0.0 ('Til The Day That I Die') 64bit
_STATISTICS_WRITING_DATE_UTC             : 2017-06-12 23:16:30
_STATISTICS_TAGS                         : BPS DURATION NUMBER_OF_FRAMES NUMBER_OF_BYTES

Audio #2
ID                                       : 3
Format                                   : AC-3
Format/Info                              : Audio Coding 3
Mode extension                           : CM (complete main)
Format settings, Endianness              : Big
Codec ID                                 : A_AC3
Duration                                 : 2h 3mn
Bit rate mode                            : Constant
Bit rate                                 : 384 Kbps
Channel(s)                               : 6 channels
Channel positions                        : Front: L C R, Side: L R, LFE
Sampling rate                            : 48.0 KHz
Bit depth                                : 16 bits
Compression mode                         : Lossy
Delay relative to video                  : -5ms
Stream size                              : 340 MiB (12%)
Title                                    : Surround
Language                                 : English
Default                                  : No
Forced                                   : No

Text #1
ID                                       : 4
Format                                   : UTF-8
Codec ID                                 : S_TEXT/UTF8
Codec ID/Info                            : UTF-8 Plain Text
Title                                    : forced
Language                                 : German
Default                                  : Yes
Forced                                   : Yes

Text #2
ID                                       : 5
Format                                   : UTF-8
Codec ID                                 : S_TEXT/UTF8
Codec ID/Info                            : UTF-8 Plain Text
Title                                    : Forced
Language                                 : English
Default                                  : No
Forced                                   : No


Download:
Share Online | Uploaded Share Online | UploadedShare Online | UploadedShare Online | Uploaded
 

Kommentare