SUPPORT HD-AREA

Filmwünsche können bei uns im Forum abgegeben werden

Wir Speichern Nicht




 
 
 
Top Releases
1922.2017.German.DD51.DL.108...
Northpole.Weihnachten.steht....
Gluecklich.geschieden.Mama.g...
28.Soldiers.Die.Panzerschlac...
Life.Of.Pi.2012.MULTi.COMPLE...
X-Men.Apocalypse.2016.COMPLE...
Gluecklich.geschieden.Mama.g...
28.Soldiers.Die.Panzerschlac...
Born.to.Be.Blue.2015.German....
Gluecklich.geschieden.Mama.g...

Cinedubs
Overdrive.German.DL.AC3.720p...
Overdrive.German.DL.AC3.1080...
Jungle.2017.German.AC3.DL.10...
Jungle.2017.German.AC3.DL.72...
Casino.Undercover.2017.Germa...
Casino.Undercover.2017.Germa...
What.Happened.to.Monday.2017...
What.Happened.to.Monday.2017...
Planet.der.Affen.Survival.20...
Planet.der.Affen.Survival.20...

Neuerscheinungen 2016-17
Pettersson.Und.Findus.2.Das....
Penny.Serenade.1941.COMPLETE...
Iron.Man.2008.MULTi.COMPLETE...
The.Dinner.2017.DUAL.COMPLET...
The.Dinner.2017.German.DL.10...
Pettersson.Und.Findus.2.Das....
Northpole.Weihnachten.geoeff...
Northpole.Weihnachten.geoeff...
Pettersson.Und.Findus.2.Das....
The.Dinner.2017.German.720p....

XXX
Watch4Beauty.17.10.12.Kendra...
WowGirls.17.10.13.Nekane.Rea...
BurningAngel.17.10.14.Arya.F...
Cosmid.17.10.14.Albina.Evans...
AussiePOV.15.02.12.Samm.Rose...
AllOver30.17.10.13.Tigger.XX...
VIPissy.17.10.16.Vanessa.Hel...
Cosmid.17.10.07.Bex.XXX.1080...
CuckoldSessions.17.10.15.Nik...
WickedPictures.Tell.Me.Somet...
Best.Of.Internal.Injection.X...
CherryPimps.17.10.12.Madelyn...
BeginnersLuck.17.09.19.Kayli...
WildOnCam.17.10.12.Piper.Per...
WildOnCam.17.10.13.Monica.As...
BruceAndMorgan.17.09.22.The....
BruceAndMorgan.17.10.06.Fill...
WeLikeToSuck.17.10.12.Diana....
CumEatingCuckOlds.17.09.22.C...
VickiValkyrie.17.07.26.Vicki...

3D
Patagonia.3D.Auf.den.Spuren....
Pirates.of.the.Caribbean.Sal...
Transformers.The.Last.Knight...
Faszination.Island.Das.Parad...
The.Final.Destination.4.3D.2...
The.Warriors.Gate.3D.2016.DU...
Wonder.Woman.3D.2017.MULTI.C...
Tutanchamun.3D.2012.COMPLETE...
Wonder.Woman.3D.HSBS.2017.Ge...
Wonder.Woman.3D.HOU.2017.Ger...
Pirates.of.the.Caribbean.Sal...
Pirates.of.the.Caribbean.Sal...
Die.Mumie.3D.2017.MULTi.COMP...
Wickie.auf.grosser.Fahrt.3D....
Die.Mumie.3D.HSBS.2017.Germa...

Old_Stuff
Chicago.Fire.S04.German.DL.1...
Chicago.Fire.S04.German.DL.7...
Conan.The.Barbarian.2011.Ger...
Conan.The.Barbarian.2011.Ger...
Die.Olsenbande.sieht.rot.197...
Olsenbande.steigt.aufs.Dach....
Malcolm.mittendrin.S05.Germa...
Malcolm.mittendrin.S04.Germa...
Life.of.Pi.2012.German.DTS.D...
Rest.Stop.Dont.Look.Back.UNC...
Koenig.der.Loewen.3D.German....
Schuesse.im.Dreiviertel.Takt...
Airwolf.S02.DUAL.BLURAY.COMP...
Don.2.The.King.is.Back.2011....
Prison.Break.S04.Complete.Ge...

Musik
The.Beatles.Sgt.Peppers.Lone...
The.Prometheus.Dolby.Atmos.E...
R.E.M.OUT.OF.TIME.25th.Anniv...
The.Rolling.Stones.GRRR.BR-A...
Mussorgsky.Bilder.einer.Auss...
Yes.-.The.Yes.Album.Bluray-A...
Carlos.Heredia.Gypsy.Flamenc...
SPES.2014.complete.Bluray.un...
Carlos.Santana.Collection.19...
Pink.Floyd.The.Endless.River...
The.Hyperion.Romantic.Piano....
Putumayo.113.CD.Flac.lossles...

Filme
Der.Dreißigjährige.Krieg.2...
Der.Preis.der.Turnschuhe.201...
Universum.der.Ozeane.2010.Ge...
ZDF.History.Mielkes.Menschen...
Die.unsichtbare.Macht.-.Lobb...
The.Fate.of.the.Furious.2017...
It.Stains.the.Sands.Red.2016...
Die.Nichten.der.Frau.Oberst....
Die.Piratenkoenigin.1951.Ger...
Re.E112.Gekaufte.Braeute.-.B...
Die.neun.Pforten.1999.German...
Die.neue.Prophezeiung.der.Ma...
Die.Nacht.des.Jaegers.1955.G...
Anthony.Joshua.The.Fight.Of....
Rumble.in.the.Bronx.1995.Ger...
Premutos.1997.German.DTS-HD....
Eine.Nacht.bei.McCools.Uncut...
Broken.Horses.2015.German.DL...
Baby.Mama.2008.German.1080p....
Die.Nacht.der.Jaeger.2011.Ge...
Die.Nacht.der.Woelfe.2011.Ge...
Jenseits.der.weissen.Linie.1...
American.Psycho.2000.German....
A.Nannys.Secret.2009.German....

 
 
12.Monkeys.S02.COMPLETE.German.DL.DUBBED.1080p.BluRay.x264-AIDA
Jahr: 2016
Genre: Abenteuer | Drama | Mystery
Sprache: Deutsch AC3 | Englisch AC3
Laufzeit: 43min je Folge
Bitrate: 9200 Kbps
Format: MKV
Größe: 3 GB je Folge
Release:

Beschreibung:

Aus der Zukunft, in der eine Pandemie die menschliche Zivilisation ausgelöscht hat, wird der Zeitreisende Cole in die Zeit vor der Apokalypse entsandt, um dort die Ursache der Katastrophe zu finden und zu eliminieren. Mit Hilfe der Medizinerin Dr. Cassandra Railly versucht er, eine Verschwörung aufzudecken.



General
Complete name                            : 12.Monkeys.S02E01.German.DL.DUBBED.1080p.BluRay.x264-AIDA\aida-12monkey-s02e01-1080p.mkv
Format                                   : Matroska
Format version                           : Version 2
File size                                : 3.06 GiB
Duration                                 : 42mn 51s
Overall bit rate mode                    : Variable
Overall bit rate                         : 10.2 Mbps
Movie name                               : 12.Monkeys.S02E01.German.DL.DUBBED.1080p.BluRay.x264-AIDA
Encoded date                             : UTC 2017-06-14 23:05:55
Writing application                      : mkvmerge v5.6.0 ('Kenya Kane') built on May 28 2012 06:47:39
Writing library                          : libebml v1.2.2 + libmatroska v1.3.0

Video
ID                                       : 1
Format                                   : AVC
Format/Info                              : Advanced Video Codec
Format profile                           : High@L4.1
Format settings, CABAC                   : Yes
Format settings, ReFrames                : 4 frames
Codec ID                                 : V_MPEG4/ISO/AVC
Duration                                 : 42mn 51s
Bit rate mode                            : Variable
Bit rate                                 : 9 235 Kbps
Maximum bit rate                         : 40.0 Mbps
Width                                    : 1 920 pixels
Height                                   : 1 080 pixels
Display aspect ratio                     : 16:9
Frame rate mode                          : Constant
Frame rate                               : 23.976 fps
Color space                              : YUV
Chroma subsampling                       : 4:2:0
Bit depth                                : 8 bits
Scan type                                : Progressive
Bits/(Pixel*Frame)                       : 0.186
Stream size                              : 2.77 GiB (90%)
Title                                    : aida-12monkey-s02e01-1080p
Language                                 : German
Default                                  : Yes
Forced                                   : Yes

Audio #1
ID                                       : 2
Format                                   : AC-3
Format/Info                              : Audio Coding 3
Mode extension                           : CM (complete main)
Format settings, Endianness              : Big
Codec ID                                 : A_AC3
Duration                                 : 42mn 51s
Bit rate mode                            : Constant
Bit rate                                 : 384 Kbps
Channel(s)                               : 6 channels
Channel positions                        : Front: L C R, Side: L R, LFE
Sampling rate                            : 48.0 KHz
Bit depth                                : 16 bits
Compression mode                         : Lossy
Stream size                              : 118 MiB (4%)
Language                                 : German
Default                                  : Yes
Forced                                   : Yes

Audio #2
ID                                       : 3
Format                                   : AC-3
Format/Info                              : Audio Coding 3
Mode extension                           : CM (complete main)
Format settings, Endianness              : Big
Codec ID                                 : A_AC3
Duration                                 : 42mn 51s
Bit rate mode                            : Constant
Bit rate                                 : 384 Kbps
Channel(s)                               : 6 channels
Channel positions                        : Front: L C R, Side: L R, LFE
Sampling rate                            : 48.0 KHz
Bit depth                                : 16 bits
Compression mode                         : Lossy
Stream size                              : 118 MiB (4%)
Language                                 : English
Default                                  : No
Forced                                   : No



Download:
Share-Online.biz Share-Online.bizShare-Online.bizShare-Online.biz | Uploaded.net Uploaded.netUploaded.netUploaded.net
 

Kommentare