Wir sind wenn hd-area.org mal ausfällt unter hd-area.biz erreichbar


Hier klickenfür Informationen zur Umgehung staatlicher Zensurmaßnahmen




Filmwünsche können bei uns im Forum abgegeben werden

Wir Speichern Nicht




 
 
 
Top Releases
Free.Fire.2016.DUAL.COMPLETE...
Batman.and.Harley.Quinn.2017...
Batman.and.Harley.Quinn.2017...
Free.Fire.German.720p.BluRay...
Batman.und.Harley.Quinn.2017...
A.United.Kingdom.2016.German...
Bis.Wir.Uns.Wiedersehen.2016...
Guardians.of.the.Galaxy.Vol....
Bis.wir.uns.wiedersehen.Till...
Boys.in.the.Trees.2016.Germa...

Cinedubs
All.Eyez.on.Me.German.MD.DL....
All.Eyez.on.Me.German.MD.DL....
Girls.Night.Out.2017.German....
Girls.Night.Out.2017.German....
Girls.Night.Out.2017.German....
Boston.German.DL.AC3.Dubbed....
Boston.German.DL.AC3.Dubbed....
Baywatch.UNRATED.German.DL.A...
Baywatch.UNRATED.German.DL.A...
Alien.Covenant.German.DL.AC3...

Neuerscheinungen 2016-17
Vier.gegen.die.Bank.2016.Ger...
El.Bar.Fruehstueck.mit.Leich...
Batman.and.Harley.Quinn.2017...
Freitag.der.13.Killer.Cut.Fr...
Blood.Orange.2016.DUAL.COMPL...
Batman.and.Harley.Quinn.2017...
Attack.of.the.Killer.Donuts....
Die.Schluempfe.Das.verlorene...
Bis.der.Regen.kommt.2017.Ger...
Bis.der.Regen.kommt.2017.Ger...

XXX
GangbangCreampie.17.08.07.G1...
DorcelClub.17.01.06.Nikita.B...
EvilAngel.POV.Sluts.Anal.Edi...
GrandpasFuckTeens.17.08.12.O...
ElegantAngel.Alexis.Loves.Gi...
GloryHole.17.08.14.Piper.Per...
DorcelClub.17.01.03.Tina.Bla...
FutileStruggles.The.Girls.Ti...
ExposedCasting.17.08.11.Ivan...
Fuck.Me.Furious.2.XXX.1080p....
FakeAgent.17.08.14.Isabella....
FakeTaxi.17.08.13.Cherri.XXX...
FutileStruggles.Nyxon.Hangs....
FutileStruggles.JJ.The.Maid....
GirlsWay.17.08.14.Penny.Pax....
EverythingButt.17.08.11.Lea....
AwesomeHandjobs.E73.Cum.Guzz...
EvilAngel.Gape.Queens.XXX.72...
ElegantAngel.MILF.Performers...
ElegantAngel.Butt.Vs.Slut.Vs...

3D
Die.Schluempfe.Das.verlorene...
Die.Schluempfe.Das.verlorene...
Wundervolle.Welt.3D.2015.DOK...
Terre.des.ours.-.Im.Land.der...
King.Arthur.Legend.of.the.Sw...
The.Curse.of.Sleeping.Beauty...
The.Curse.of.Sleeping.Beauty...
King.Arthur.Legend.of.the.Sw...
The.Curse.of.Sleeping.Beauty...
King.Arthur.Legend.of.the.Sw...
King.Arthur.Legend.of.the.Sw...
Die.Schoene.und.das.Biest.3D...
Ghost.in.the.Shell.3D.HSBS.2...
Die.Schoene.und.das.Biest.3D...
Wildlife.South.Africa.3D.Par...

Old_Stuff
Geraubte.Kuesse.1968.DUAL.CO...
Prison.Break.S02.COMPLETE.20...
Planet.der.Affen.Revolution....
Prison.Break.S01.COMPLETE.20...
King.of.Queens.S09.DUAL.COMP...
King.of.Queens.S08.DUAL.COMP...
King.of.Queens.S07.DUAL.COMP...
Gods.Army.1.UNCUT.1995.Germa...
Gods.Army.II.Die.Prophezeiun...
Gods.Army.III.Die.Entscheidu...
Gods.Army.IV.Die.Offenbarung...
The.Family.Guy.Star.Wars.Sag...
Tuerkisch.fuer.Anfaenger.S02...
Tuerkisch.fuer.Anfaenger.S01...
Jurassic.Park.1993.German.DT...

Musik
The.Beatles.Sgt.Peppers.Lone...
The.Prometheus.Dolby.Atmos.E...
R.E.M.OUT.OF.TIME.25th.Anniv...
The.Rolling.Stones.GRRR.BR-A...
Mussorgsky.Bilder.einer.Auss...
Yes.-.The.Yes.Album.Bluray-A...
Carlos.Heredia.Gypsy.Flamenc...
SPES.2014.complete.Bluray.un...
Carlos.Santana.Collection.19...
Pink.Floyd.The.Endless.River...
The.Hyperion.Romantic.Piano....
Putumayo.113.CD.Flac.lossles...

Filme
Pawn.2013.German.1080p.DL.DT...
You.Are.Not.Alone.Jemand.ist...
Der.Kindergarten.Daddy.2003....
Boeing.Boeing.1965.German.AC...
Kazaam.Der.Geist.der.aus.der...
N.Y.C.Underground.2013.Germa...
Spiel.mit.mir.Billy.Roses.Ju...
Spiel.mit.mir.Billy.Roses.Ju...
The.Last.Ship.S04.GERMAN.DUB...
The.Last.Ship.S04.GERMAN.DUB...
Dark.Matter.S03.GERMAN.DUBBE...
Dark.Matter.S03.GERMAN.DUBBE...
The.Big.Bang.Theory.S10.GERM...
The.Big.Bang.Theory.S10.GERM...
Wrecked.S02.GERMAN.DUBBED.72...
Game.of.Thrones.S07.German.D...
Game.of.Thrones.S07.German.D...
Wanted.2008.DTS.Open.Matte.1...
Dellamorte.Dellamore.German....
Dem.Himmel.so.nah.1995.Germa...
Die.Inquisition.2014.German....
Arachnophobia.Remastered.199...
London.Falling.2014.German.D...
P.51.Dragon.Fighter.2014.Ger...

 
 
Logan.The.Wolverine.2017.German.DTS.DL.1080p.BluRay.x264-COiNCiDENCE
Jahr: 2017
Genre: Action, Drama, Sci-Fi
Sprache: Deutsch DTS | Englisch DTS
Laufzeit: 2h 17mn
Bitrate: 11.4 Mbps
Format: MKV
Größe: 10.9 GiB
Release:

Beschreibung:

In der Welt des Jahres 2029 sind Mutanten Geschichte, beinahe jedenfalls: Der gealterte Logan alias Wolverine (Hugh Jackman) ist einer der wenigen verbleibenden Menschen mit außergewöhnlichen Kräften und verbringt seine Tage an einem verlassenen Flecken Erde nahe der Grenze zu Mexiko, wo er sein Geld als Fahrer verdient und ihm nur zwei weitere Mutanten Gesellschaft leisten: Caliban (Stephen Merchant) und Charles Xavier alias Professor X (Patrick Stewart), dessen einst so brillanter und mächtiger Verstand von regelmäßigen Anfällen heimgesucht wird. Doch Logans selbstauferlegtes Exil endet eines Tages abrupt, als eine mysteriöse Frau ihn darum bittet, sich um die junge Mutantin Laura (Dafne Keen) zu kümmern und diese in Sicherheit zu bringen. Bald schon muss sich der krallenbewehrte Krieger mit dunklen Mächten und einem Bösewicht aus seiner eigenen Vergangenheit auseinandersetzen, um Laura zu beschützen

 



Unique ID                                : 214046240265889843044105535328236203414 (0xA107CE6DAF534C33A4C4544F85D5ED96)
Complete name                            : coincidence-logan-1080p.mkv
Format                                   : Matroska
Format version                           : Version 4 / Version 2
File size                                : 10.9 GiB
Duration                                 : 2h 17mn
Overall bit rate                         : 11.4 Mbps
Encoded date                             : UTC 2017-06-15 13:08:04
Writing application                      : mkvmerge v8.3.0 ('Over the Horizon') 64bit
Writing library                          : libebml v1.3.1 + libmatroska v1.4.2
DURATION                                 : 02:17:23.286000000
NUMBER_OF_FRAMES                         : 772808
NUMBER_OF_BYTES                          : 1554889816
_STATISTICS_WRITING_APP                  : mkvmerge v8.3.0 ('Over the Horizon') 64bit
_STATISTICS_WRITING_DATE_UTC             : 2017-06-15 13:08:04
_STATISTICS_TAGS                         : BPS DURATION NUMBER_OF_FRAMES NUMBER_OF_BYTES

Video
ID                                       : 1
Format                                   : AVC
Format/Info                              : Advanced Video Codec
Format profile                           : High@L4.1
Format settings, CABAC                   : Yes
Format settings, ReFrames                : 5 frames
Codec ID                                 : V_MPEG4/ISO/AVC
Duration                                 : 2h 17mn
Bit rate                                 : 9 093 Kbps
Width                                    : 1 920 pixels
Height                                   : 808 pixels
Display aspect ratio                     : 2.40:1
Frame rate mode                          : Constant
Frame rate                               : 23.976 fps
Color space                              : YUV
Chroma subsampling                       : 4:2:0
Bit depth                                : 8 bits
Scan type                                : Progressive
Bits/(Pixel*Frame)                       : 0.244
Stream size                              : 8.51 GiB (78%)
Writing library                          : x264 core 150 r2833 df79067
Encoding settings                        : cabac=1 / ref=5 / deblock=1:-1:-1 / analyse=0x3:0x113 / me=umh / subme=10 / psy=1 / psy_rd=1.00:0.00 / mixed_ref=1 / me_range=16 / chroma_me=1 / trellis=2 / 8x8dct=1 / cqm=0 / deadzone=21,11 / fast_pskip=0 / chroma_qp_offset=-2 / threads=24 / lookahead_threads=2 / sliced_threads=0 / nr=0 / decimate=1 / interlaced=0 / bluray_compat=0 / constrained_intra=0 / bframes=5 / b_pyramid=2 / b_adapt=1 / b_bias=0 / direct=3 / weightb=1 / open_gop=0 / weightp=1 / keyint=250 / keyint_min=23 / scenecut=40 / intra_refresh=0 / rc_lookahead=40 / rc=2pass / mbtree=1 / bitrate=9093 / ratetol=1.0 / qcomp=0.60 / qpmin=0 / qpmax=69 / qpstep=4 / cplxblur=20.0 / qblur=0.5 / ip_ratio=1.40 / aq=1:1.00
Language                                 : English
Default                                  : Yes
Forced                                   : No
DURATION                                 : 02:17:23.277000000
NUMBER_OF_FRAMES                         : 197641
NUMBER_OF_BYTES                          : 9363281075
_STATISTICS_WRITING_APP                  : mkvmerge v8.3.0 ('Over the Horizon') 64bit
_STATISTICS_WRITING_DATE_UTC             : 2017-06-15 13:08:04
_STATISTICS_TAGS                         : BPS DURATION NUMBER_OF_FRAMES NUMBER_OF_BYTES

Audio #1
ID                                       : 2
Format                                   : DTS
Format/Info                              : Digital Theater Systems
Mode                                     : 16
Format settings, Endianness              : Big
Codec ID                                 : A_DTS
Duration                                 : 2h 17mn
Bit rate mode                            : Constant
Bit rate                                 : 768 Kbps
Channel(s)                               : 6 channels
Channel positions                        : Front: L C R, Side: L R, LFE
Sampling rate                            : 48.0 KHz
Bit depth                                : 24 bits
Compression mode                         : Lossy
Stream size                              : 755 MiB (7%)
Language                                 : German
Default                                  : Yes
Forced                                   : No

Audio #2
ID                                       : 3
Format                                   : DTS
Format/Info                              : Digital Theater Systems
Mode                                     : 16
Format settings, Endianness              : Big
Codec ID                                 : A_DTS
Duration                                 : 2h 17mn
Bit rate mode                            : Constant
Bit rate                                 : 1 509 Kbps
Channel(s)                               : 6 channels
Channel positions                        : Front: L C R, Side: L R, LFE
Sampling rate                            : 48.0 KHz
Bit depth                                : 24 bits
Compression mode                         : Lossy
Stream size                              : 1.45 GiB (13%)
Language                                 : English
Default                                  : No
Forced                                   : No


Download:
Share Online | Uploaded Share Online | UploadedShare Online | UploadedShare Online | Uploaded
 

Kommentare

  1. Geschrieben am 17. June 2017, 17:40 Uhr von PsyDaddy · #

    Untertitel GERMAN FORCED fehlt!!! Da Logans Tochter zu 90% spanisch redet… wenn sie mal redet…