Wir sind wenn hd-area.org mal ausfällt unter hd-area.biz erreichbar


Hier klickenfür Informationen zur Umgehung staatlicher Zensurmaßnahmen




Filmwünsche können bei uns im Forum abgegeben werden

Wir Speichern Nicht




 
 
 
Top Releases
Live.by.Night.2016.German.Du...
I.am.not.your.Negro.2016.Ger...
I.am.not.your.Negro.2016.Ger...
The.Devils.Candy.2015.German...
Erpressung.Wie.viel.ist.dein...
Hell.or.High.Water.2016.Germ...
Sicario.2015.German.DTS.DL.1...
Loving.2016.German.DTS.DL.10...
Der.grosse.Trip.Wild.2014.Ge...
Der.grosse.Trip.Wild.2014.Ge...

Cinedubs
King.Arthur.Legend.of.the.Sw...
King.Arthur.Legend.of.the.Sw...
Chips.German.DL.AC3.Dubbed.7...
Chips.German.DL.AC3.Dubbed.1...
Kong.Skull.Island.German.DL....
Kong.Skull.Island.German.DL....
Resident.Evil.The.Final.Chap...
Resident.Evil.The.Final.Chap...
Resident.Evil.The.Final.Chap...
Resident.Evil.Vendetta.Germa...

Neuerscheinungen 2016-17
Voice.from.the.Stone.Ruf.aus...
Voice.from.the.Stone.Ruf.aus...
The.Shadow.Man.2017.German.D...
Erpressung.Wie.viel.ist.dein...
Nur.48.Stunden.German.1982.D...
Tokyo.Grand.Guignol.2015.COM...
Bon.Voyage.ihr.Idioten.2013....
The.Binding.2016.German.DL.1...
The.Binding.2016.German.720p...
Moontrap.Angriffsziel.Erde.2...

XXX
Penthouse.16.05.01.Crista.Mo...
Penthouse.16.05.02.Molly.Rae...
PascalsSubSluts.17.06.22.Lau...
MikaelaWitt.17.05.19.Foot.Fe...
Nubiles.17.06.23.Krystyna.Pu...
PlumperPass.17.06.23.Veronic...
PixAndVideo.17.06.23.Darcia....
Penthouse.16.05.02.Nicole.Gr...
PornMegaLoad.17.06.21.Sherry...
NuruMassage.17.06.21.Avi.Lov...
MomKnowsBest.17.06.23.Caroli...
PornstarPlatinum.17.06.22.Al...
NaughtyOffice.17.06.23.Natal...
Porntugal.15.12.04.Susana.Me...
Porntugal.15.12.02.Rebecca.P...
Passion-HD.17.06.24.Kenzie.K...
Nubiles.17.06.21.Krystyna.Lo...
Porntugal.15.12.05.Scarlett....
NubileFilms.17.06.21.Melody....
MissaX.17.06.02.Penny.Pax.Th...

3D
Storm.Surfers.3D.2012.Bluray...
Die.irre.Heldentour.des.Bill...
Die.Bestimmung.Insurgent.3D....
Die.Bestimmung.Insurgent.3D....
The.Great.Wall.3D.2016.multi...
San.Andreas.3D.2015.German.D...
Mojin.The.Lost.Legend.3D.201...
The.LEGO.Batman.Movie.3D.201...
The.LEGO.Batman.Movie.2017.3...
The.LEGO.Batman.Movie.2017.3...
Kraftwerk.3D.12345678.2016.2...
Die.irre.Heldentour.des.Bill...
Die.irre.Heldentour.des.Bill...
L.A.Outlaws.Die.Gesetzlosen....
L.A.Outlaws.Die.Gesetzlosen....

Old_Stuff
Lie.With.Me.Liebe.Mich.2005....
Zurueck.zu.Dir.2000.GERMAN.A...
P.O.E.-.Project.of.Evil.UNCU...
Fields.of.the.Dead.3D.2014.D...
Feuerwerk.am.helllichten.Tag...
Pitch.Perfect.2012.German.DT...
Das.A-Team.S05.German.DUBBED...
Das.A-Team.S05.German.DUBBED...
House.Rules.for.Bad.Girls.3D...
Return.To.Nuke.Em.High.Volum...
Dragons.of.Camelot.2014.DUAL...
Amy.Sie.oeffnet.das.Tor.zur....
13.Eerie.We.Prey.For.You.UNC...
Codename.U.N.C.L.E.2015.MULT...
Halloween.Resurrection.2002....

Musik
The.Beatles.Sgt.Peppers.Lone...
The.Prometheus.Dolby.Atmos.E...
R.E.M.OUT.OF.TIME.25th.Anniv...
The.Rolling.Stones.GRRR.BR-A...
Mussorgsky.Bilder.einer.Auss...
Yes.-.The.Yes.Album.Bluray-A...
Carlos.Heredia.Gypsy.Flamenc...
SPES.2014.complete.Bluray.un...
Carlos.Santana.Collection.19...
Pink.Floyd.The.Endless.River...
The.Hyperion.Romantic.Piano....
Putumayo.113.CD.Flac.lossles...

Filme
Die.Konfirmation.2017.GERMAN...
Chaos.unterm.Korb.1995.Germa...
Crossroads.1986.German.AC3D....
Fist.of.God.2014.German.1080...
Fist.of.God.2014.German.720p...
Kong.Skull.Island.2017.COMPL...
Best.of.the.Best.3.No.Turnin...
Superstore.S01-S02.German.DL...
Superstore.S01-S02.German.DL...
Fear.The.Walking.Dead.S03.Ge...
American.Crime.S03.GERMAN.DL...
Best.of.the.Best.3.No.Turnin...
Best.of.the.Best.3.No.Turnin...
American.Crime.S03.GERMAN.72...
Pretty.Little.Liars.S07.Germ...
Preacher.S02.GERMAN.DL.DUBBE...
Preacher.S02.GERMAN.Dubbed.7...
GLOW.S01.COMPLETE.German.DL....
Gotham.S03.GERMAN.DUBBED.DL....
Gotham.S03.GERMAN.DUBBED.DL....
Vampire.Diaries.S08.GERMAN.D...
The.Vampire.Diaries.S08.GERM...
Angie.Tribeca.S03.GERMAN.DUB...
The.Flash.S03.GERMAN.DUBBED....

 
 
Das.Belko.Experiment.2017.GERMAN.DL.AC3MD.1080p.BluRay.x264-SPECTRE
Jahr: 2017
Genre: Thriller, Action, Horror
Sprache: Deutsch AC3 | Englisch DTS
Laufzeit: 1h 28mn
Bitrate: 10.8 Mbps
Format: MKV
Größe: 6.68 GiB
Release:

Beschreibung:
Eigentlich ist sollte es für die Angestellten der Non-Profit-Organisation Belko Corp. ein ganz normaler Arbeitstag werden. Doch als am Morgen kurzerhand sämtliche einheimischen Bediensteten nach Hause geschickt werden, ist klar, dass etwas anders ist als sonst. Und bald erfahren die Verbleibenden in dem Bürogebäude am Stadtrand Bogotás auch, was: Unbekannte riegeln das Belko-Headquarter komplett ab, kontrollieren das perfide Experiment von außen und dirigieren die 80 Arbeitskollegen über die Lautsprecheranlage. Sie werden vor eine grausame Wahl gestellt: Entweder töten sie innerhalb von 30 Minuten drei Mitarbeiter oder die Veranstalter des Experiments töten sechs Angestellte durch in ihren Körpern versteckte Mini-Sprengsätze. Schnell teilt sich die Bürobelegschaft in zwei Hälften: Die eine, unter Führung des leitenden Angestellten Mike (John Gallagher, Jr.) will einfach nur überleben, die andere jagt unter Leitung von Belko-Boss Barry (Tony Goldwyn) und dessen rechter Hand Wendell (John C. McGinley) fortan die ehemaligen Kollegen. Ein blutiger Überlebenskampf nimmt seinen Lauf und ein Entkommen erscheint unmöglich...


Unique ID                                : 201098796227702518814213227180718134121 (0x974A3826E58B75E784804200A8E19369)
Complete name                            : belko_1080p-spectre.mkv
Format                                   : Matroska
Format version                           : Version 4 / Version 2
File size                                : 6.68 GiB
Duration                                 : 1h 28mn
Overall bit rate                         : 10.8 Mbps
Encoded date                             : UTC 2017-06-15 23:31:31
Writing application                      : mkvmerge v8.0.0 ('Til The Day That I Die') 64bit
Writing library                          : libebml v1.3.1 + libmatroska v1.4.2
DURATION                                 : 00:00:10.000000000
NUMBER_OF_FRAMES                         : 3
NUMBER_OF_BYTES                          : 127
_STATISTICS_WRITING_APP                  : mkvmerge v8.0.0 ('Til The Day That I Die') 64bit
_STATISTICS_WRITING_DATE_UTC             : 2017-06-15 23:31:31
_STATISTICS_TAGS                         : BPS DURATION NUMBER_OF_FRAMES NUMBER_OF_BYTES

Video
ID                                       : 1
Format                                   : AVC
Format/Info                              : Advanced Video Codec
Format profile                           : High@L4.1
Format settings, CABAC                   : Yes
Format settings, ReFrames                : 5 frames
Codec ID                                 : V_MPEG4/ISO/AVC
Duration                                 : 1h 28mn
Bit rate                                 : 9 067 Kbps
Width                                    : 1 920 pixels
Height                                   : 800 pixels
Display aspect ratio                     : 2.40:1
Frame rate mode                          : Constant
Frame rate                               : 23.976 fps
Color space                              : YUV
Chroma subsampling                       : 4:2:0
Bit depth                                : 8 bits
Scan type                                : Progressive
Bits/(Pixel*Frame)                       : 0.246
Stream size                              : 5.49 GiB (82%)
Title                                    : 1080p
Writing library                          : x264 core 150 r2833 df79067
Encoding settings                        : cabac=1 / ref=5 / deblock=1:0:0 / analyse=0x3:0x113 / me=umh / subme=8 / psy=1 / psy_rd=1.00:0.00 / mixed_ref=1 / me_range=16 / chroma_me=1 / trellis=1 / 8x8dct=1 / cqm=0 / deadzone=21,11 / fast_pskip=1 / chroma_qp_offset=-2 / threads=24 / lookahead_threads=4 / sliced_threads=0 / nr=0 / decimate=1 / interlaced=0 / bluray_compat=0 / constrained_intra=0 / bframes=3 / b_pyramid=2 / b_adapt=1 / b_bias=0 / direct=3 / weightb=1 / open_gop=0 / weightp=2 / keyint=240 / keyint_min=24 / scenecut=40 / intra_refresh=0 / rc_lookahead=50 / rc=2pass / mbtree=1 / bitrate=9067 / ratetol=1.0 / qcomp=0.60 / qpmin=0 / qpmax=69 / qpstep=4 / cplxblur=20.0 / qblur=0.5 / ip_ratio=1.40 / aq=1:1.00
Language                                 : English
Default                                  : Yes
Forced                                   : Yes
DURATION                                 : 01:28:45.320000000
NUMBER_OF_FRAMES                         : 127680
NUMBER_OF_BYTES                          : 6034073140
_STATISTICS_WRITING_APP                  : mkvmerge v8.0.0 ('Til The Day That I Die') 64bit
_STATISTICS_WRITING_DATE_UTC             : 2017-06-15 23:31:31
_STATISTICS_TAGS                         : BPS DURATION NUMBER_OF_FRAMES NUMBER_OF_BYTES

Audio #1
ID                                       : 2
Format                                   : AC-3
Format/Info                              : Audio Coding 3
Mode extension                           : CM (complete main)
Format settings, Endianness              : Big
Codec ID                                 : A_AC3
Duration                                 : 1h 28mn
Bit rate mode                            : Constant
Bit rate                                 : 192 Kbps
Channel(s)                               : 2 channels
Channel positions                        : Front: L R
Sampling rate                            : 48.0 KHz
Bit depth                                : 16 bits
Compression mode                         : Lossy
Stream size                              : 122 MiB (2%)
Language                                 : German
Default                                  : Yes
Forced                                   : Yes

Audio #2
ID                                       : 3
Format                                   : DTS
Format/Info                              : Digital Theater Systems
Mode                                     : 16
Format settings, Endianness              : Big
Codec ID                                 : A_DTS
Duration                                 : 1h 28mn
Bit rate mode                            : Constant
Bit rate                                 : 1 509 Kbps
Channel(s)                               : 6 channels
Channel positions                        : Front: L C R, Side: L R, LFE
Sampling rate                            : 48.0 KHz
Bit depth                                : 24 bits
Compression mode                         : Lossy
Stream size                              : 958 MiB (14%)
Language                                 : English
Default                                  : No
Forced                                   : No

Text #1
ID                                       : 4
Format                                   : UTF-8
Codec ID                                 : S_TEXT/UTF8
Codec ID/Info                            : UTF-8 Plain Text
Title                                    : forced
Language                                 : German
Default                                  : Yes
Forced                                   : Yes

Text #2
ID                                       : 5
Format                                   : UTF-8
Codec ID                                 : S_TEXT/UTF8
Codec ID/Info                            : UTF-8 Plain Text
Title                                    : English regular
Language                                 : English
Default                                  : No
Forced                                   : No


Download:
Share Online | Uploaded Share Online | UploadedShare Online | UploadedShare Online | Uploaded
 

Kommentare