Wir sind wenn hd-area.org mal ausfällt unter hd-area.biz erreichbar


Hier klickenfür Informationen zur Umgehung staatlicher Zensurmaßnahmen




Filmwünsche können bei uns im Forum abgegeben werden

Wir Speichern Nicht




 
 
 
Top Releases
Free.Fire.2016.DUAL.COMPLETE...
Batman.and.Harley.Quinn.2017...
Batman.and.Harley.Quinn.2017...
Free.Fire.German.720p.BluRay...
Batman.und.Harley.Quinn.2017...
A.United.Kingdom.2016.German...
Bis.Wir.Uns.Wiedersehen.2016...
Guardians.of.the.Galaxy.Vol....
Bis.wir.uns.wiedersehen.Till...
Boys.in.the.Trees.2016.Germa...

Cinedubs
All.Eyez.on.Me.German.MD.DL....
All.Eyez.on.Me.German.MD.DL....
Girls.Night.Out.2017.German....
Girls.Night.Out.2017.German....
Girls.Night.Out.2017.German....
Boston.German.DL.AC3.Dubbed....
Boston.German.DL.AC3.Dubbed....
Baywatch.UNRATED.German.DL.A...
Baywatch.UNRATED.German.DL.A...
Alien.Covenant.German.DL.AC3...

Neuerscheinungen 2016-17
Vier.gegen.die.Bank.2016.Ger...
El.Bar.Fruehstueck.mit.Leich...
Batman.and.Harley.Quinn.2017...
Freitag.der.13.Killer.Cut.Fr...
Blood.Orange.2016.DUAL.COMPL...
Batman.and.Harley.Quinn.2017...
Attack.of.the.Killer.Donuts....
Die.Schluempfe.Das.verlorene...
Bis.der.Regen.kommt.2017.Ger...
Bis.der.Regen.kommt.2017.Ger...

XXX
GangbangCreampie.17.08.07.G1...
DorcelClub.17.01.06.Nikita.B...
EvilAngel.POV.Sluts.Anal.Edi...
GrandpasFuckTeens.17.08.12.O...
ElegantAngel.Alexis.Loves.Gi...
GloryHole.17.08.14.Piper.Per...
DorcelClub.17.01.03.Tina.Bla...
FutileStruggles.The.Girls.Ti...
ExposedCasting.17.08.11.Ivan...
Fuck.Me.Furious.2.XXX.1080p....
FakeAgent.17.08.14.Isabella....
FakeTaxi.17.08.13.Cherri.XXX...
FutileStruggles.Nyxon.Hangs....
FutileStruggles.JJ.The.Maid....
GirlsWay.17.08.14.Penny.Pax....
EverythingButt.17.08.11.Lea....
AwesomeHandjobs.E73.Cum.Guzz...
EvilAngel.Gape.Queens.XXX.72...
ElegantAngel.MILF.Performers...
ElegantAngel.Butt.Vs.Slut.Vs...

3D
Die.Schluempfe.Das.verlorene...
Die.Schluempfe.Das.verlorene...
Wundervolle.Welt.3D.2015.DOK...
Terre.des.ours.-.Im.Land.der...
King.Arthur.Legend.of.the.Sw...
The.Curse.of.Sleeping.Beauty...
The.Curse.of.Sleeping.Beauty...
King.Arthur.Legend.of.the.Sw...
The.Curse.of.Sleeping.Beauty...
King.Arthur.Legend.of.the.Sw...
King.Arthur.Legend.of.the.Sw...
Die.Schoene.und.das.Biest.3D...
Ghost.in.the.Shell.3D.HSBS.2...
Die.Schoene.und.das.Biest.3D...
Wildlife.South.Africa.3D.Par...

Old_Stuff
Geraubte.Kuesse.1968.DUAL.CO...
Prison.Break.S02.COMPLETE.20...
Planet.der.Affen.Revolution....
Prison.Break.S01.COMPLETE.20...
King.of.Queens.S09.DUAL.COMP...
King.of.Queens.S08.DUAL.COMP...
King.of.Queens.S07.DUAL.COMP...
Gods.Army.1.UNCUT.1995.Germa...
Gods.Army.II.Die.Prophezeiun...
Gods.Army.III.Die.Entscheidu...
Gods.Army.IV.Die.Offenbarung...
The.Family.Guy.Star.Wars.Sag...
Tuerkisch.fuer.Anfaenger.S02...
Tuerkisch.fuer.Anfaenger.S01...
Jurassic.Park.1993.German.DT...

Musik
The.Beatles.Sgt.Peppers.Lone...
The.Prometheus.Dolby.Atmos.E...
R.E.M.OUT.OF.TIME.25th.Anniv...
The.Rolling.Stones.GRRR.BR-A...
Mussorgsky.Bilder.einer.Auss...
Yes.-.The.Yes.Album.Bluray-A...
Carlos.Heredia.Gypsy.Flamenc...
SPES.2014.complete.Bluray.un...
Carlos.Santana.Collection.19...
Pink.Floyd.The.Endless.River...
The.Hyperion.Romantic.Piano....
Putumayo.113.CD.Flac.lossles...

Filme
Pawn.2013.German.1080p.DL.DT...
You.Are.Not.Alone.Jemand.ist...
Der.Kindergarten.Daddy.2003....
Boeing.Boeing.1965.German.AC...
Kazaam.Der.Geist.der.aus.der...
N.Y.C.Underground.2013.Germa...
Spiel.mit.mir.Billy.Roses.Ju...
Spiel.mit.mir.Billy.Roses.Ju...
The.Last.Ship.S04.GERMAN.DUB...
The.Last.Ship.S04.GERMAN.DUB...
Dark.Matter.S03.GERMAN.DUBBE...
Dark.Matter.S03.GERMAN.DUBBE...
The.Big.Bang.Theory.S10.GERM...
The.Big.Bang.Theory.S10.GERM...
Wrecked.S02.GERMAN.DUBBED.72...
Game.of.Thrones.S07.German.D...
Game.of.Thrones.S07.German.D...
Wanted.2008.DTS.Open.Matte.1...
Dellamorte.Dellamore.German....
Dem.Himmel.so.nah.1995.Germa...
Die.Inquisition.2014.German....
Arachnophobia.Remastered.199...
London.Falling.2014.German.D...
P.51.Dragon.Fighter.2014.Ger...

 
 
Kill.Em.All.2017.German.DTS.DL.1080p.BluRay.x265-UNFIrED
Jahr: 2017
Genre: Action
Sprache: Deutsch DTS | Englisch DTS
Laufzeit: 1h 35mn
Bitrate: 5 137 Kbps
Format: MKV
Größe: 3.44 GiB
Release:

Beschreibung:
Philip (Jean-Claude Van Damme) wird nach einer gewaltigen Schießerei in ein Krankenhaus eingeliefert und ist dem Tode nahe. Doch auch dort ist er nicht sicher, denn schon bald wird er im Krankenhaus von den Schergen des Mannes aufgespürt, den er eigentlich töten wollte...
x265


Unique ID                                : 196426225064200611220708841588331292917 (0x93C6509B69A456E3A9699BF77C52A8F5)
Complete name                            : unfired-killemall-x265.mkv
Format                                   : Matroska
Format version                           : Version 2
File size                                : 3.44 GiB
Duration                                 : 1h 35mn
Overall bit rate                         : 5 137 Kbps
Encoded date                             : UTC 2017-06-16 10:38:40
Writing application                      : mkvmerge v12.0.0 ('Trust / Lust') 64bit
Writing library                          : libebml v1.3.4 + libmatroska v1.4.5
DURATION                                 : 01:35:25.511000000
NUMBER_OF_FRAMES                         : 69
NUMBER_OF_BYTES                          : 206956
_STATISTICS_WRITING_APP                  : mkvmerge v12.0.0 ('Trust / Lust') 64bit
_STATISTICS_WRITING_DATE_UTC             : 2017-06-16 10:38:40
_STATISTICS_TAGS                         : BPS DURATION NUMBER_OF_FRAMES NUMBER_OF_BYTES

Video
ID                                       : 1
Format                                   : HEVC
Format/Info                              : High Efficiency Video Coding
Format profile                           : Main@L4.0
Codec ID                                 : V_MPEGH/ISO/HEVC
Duration                                 : 1h 35mn
Bit rate                                 : 2 017 Kbps
Width                                    : 1 920 pixels
Height                                   : 800 pixels
Display aspect ratio                     : 2.40:1
Frame rate mode                          : Constant
Frame rate                               : 23.976 fps
Color space                              : YUV
Chroma subsampling                       : 4:2:0
Bit depth                                : 8 bits
Bits/(Pixel*Frame)                       : 0.055
Stream size                              : 1.35 GiB (39%)
Writing library                          : x265 2.2+2-998d4520d1cf:[Windows][GCC 6.2.0][64 bit] 8bit+10bit+12bit
Encoding settings                        : cpuid=1050111 / frame-threads=3 / numa-pools=8 / wpp / no-pmode / no-pme / no-psnr / no-ssim / log-level=2 / input-csp=1 / input-res=1920x800 / interlace=0 / total-frames=137880 / level-idc=0 / high-tier=1 / uhd-bd=0 / ref=4 / no-allow-non-conformance / no-repeat-headers / annexb / no-aud / no-hrd / info / hash=0 / no-temporal-layers / open-gop / min-keyint=23 / keyint=250 / bframes=4 / b-adapt=2 / b-pyramid / bframe-bias=0 / rc-lookahead=25 / lookahead-slices=4 / scenecut=40 / no-intra-refresh / ctu=64 / min-cu-size=8 / rect / no-amp / max-tu-size=32 / tu-inter-depth=1 / tu-intra-depth=1 / limit-tu=0 / rdoq-level=2 / signhide / no-tskip / nr-intra=0 / nr-inter=0 / no-constrained-intra / strong-intra-smoothing / max-merge=3 / limit-refs=3 / limit-modes / me=3 / subme=3 / merange=57 / temporal-mvp / weightp / no-weightb / no-analyze-src-pics / deblock=0:0 / sao / no-sao-non-deblock / rd=4 / no-early-skip / rskip / no-fast-intra / no-tskip-fast / no-cu-lossless / no-b-intra / rdpenalty=0 / psy-rd=2.00 / psy-rdoq=1.00 / no-rd-refine / analysis-mode=0 / no-lossless / cbqpoffs=0 / crqpoffs=0 / rc=crf / crf=19.9 / qcomp=0.60 / qpstep=4 / stats-write=0 / stats-read=0 / ipratio=1.40 / pbratio=1.30 / aq-mode=1 / aq-strength=1.00 / cutree / zone-count=0 / no-strict-cbr / qg-size=32 / no-rc-grain / qpmax=69 / qpmin=0 / sar=1 / overscan=0 / videoformat=5 / range=0 / colorprim=2 / transfer=2 / colormatrix=2 / chromaloc=0 / display-window=0 / max-cll=0,0 / min-luma=0 / max-luma=255 / log2-max-poc-lsb=8 / vui-timing-info / vui-hrd-info / slices=1 / opt-qp-pps / opt-ref-list-length-pps / no-multi-pass-opt-rps / scenecut-bias=0.05
Default                                  : Yes
Forced                                   : No

Audio #1
ID                                       : 2
Format                                   : DTS
Format/Info                              : Digital Theater Systems
Mode                                     : 16
Format settings, Endianness              : Big
Codec ID                                 : A_DTS
Duration                                 : 1h 35mn
Bit rate mode                            : Constant
Bit rate                                 : 1 509 Kbps
Channel(s)                               : 6 channels
Channel positions                        : Front: L C R, Side: L R, LFE
Sampling rate                            : 48.0 KHz
Bit depth                                : 24 bits
Compression mode                         : Lossy
Stream size                              : 1.01 GiB (29%)
Language                                 : German
Default                                  : Yes
Forced                                   : No

Audio #2
ID                                       : 3
Format                                   : DTS
Format/Info                              : Digital Theater Systems
Mode                                     : 16
Format settings, Endianness              : Big
Codec ID                                 : A_DTS
Duration                                 : 1h 35mn
Bit rate mode                            : Constant
Bit rate                                 : 1 509 Kbps
Channel(s)                               : 6 channels
Channel positions                        : Front: L C R, Side: L R, LFE
Sampling rate                            : 48.0 KHz
Bit depth                                : 24 bits
Compression mode                         : Lossy
Stream size                              : 1.01 GiB (29%)
Language                                 : English
Default                                  : No
Forced                                   : No

Text #1
ID                                       : 4
Format                                   : PGS
Muxing mode                              : zlib
Codec ID                                 : S_HDMV/PGS
Codec ID/Info                            : The same subtitle format used on BDs/HD-DVDs
Title                                    : complete
Language                                 : German
Default                                  : No
Forced                                   : No

Text #2
ID                                       : 5
Format                                   : VobSub
Muxing mode                              : zlib
Codec ID                                 : S_VOBSUB
Codec ID/Info                            : The same subtitle format used on DVDs
Title                                    : forced
Language                                 : German
Default                                  : Yes
Forced                                   : Yes


Download:
Share Online | Uploaded Share Online | UploadedShare Online | UploadedShare Online | Uploaded
 

Kommentare