Wir sind wenn hd-area.org mal ausfällt unter hd-area.biz erreichbar


Hier klickenfür Informationen zur Umgehung staatlicher Zensurmaßnahmen




Filmwünsche können bei uns im Forum abgegeben werden

Wir Speichern Nicht




 
 
 
Top Releases
Live.by.Night.2016.German.Du...
I.am.not.your.Negro.2016.Ger...
I.am.not.your.Negro.2016.Ger...
The.Devils.Candy.2015.German...
Erpressung.Wie.viel.ist.dein...
Hell.or.High.Water.2016.Germ...
Sicario.2015.German.DTS.DL.1...
Loving.2016.German.DTS.DL.10...
Der.grosse.Trip.Wild.2014.Ge...
Der.grosse.Trip.Wild.2014.Ge...

Cinedubs
King.Arthur.Legend.of.the.Sw...
King.Arthur.Legend.of.the.Sw...
Chips.German.DL.AC3.Dubbed.7...
Chips.German.DL.AC3.Dubbed.1...
Kong.Skull.Island.German.DL....
Kong.Skull.Island.German.DL....
Resident.Evil.The.Final.Chap...
Resident.Evil.The.Final.Chap...
Resident.Evil.The.Final.Chap...
Resident.Evil.Vendetta.Germa...

Neuerscheinungen 2016-17
Voice.from.the.Stone.Ruf.aus...
Voice.from.the.Stone.Ruf.aus...
The.Shadow.Man.2017.German.D...
Erpressung.Wie.viel.ist.dein...
Nur.48.Stunden.German.1982.D...
Tokyo.Grand.Guignol.2015.COM...
Bon.Voyage.ihr.Idioten.2013....
The.Binding.2016.German.DL.1...
The.Binding.2016.German.720p...
Moontrap.Angriffsziel.Erde.2...

XXX
Penthouse.16.05.01.Crista.Mo...
Penthouse.16.05.02.Molly.Rae...
PascalsSubSluts.17.06.22.Lau...
MikaelaWitt.17.05.19.Foot.Fe...
Nubiles.17.06.23.Krystyna.Pu...
PlumperPass.17.06.23.Veronic...
PixAndVideo.17.06.23.Darcia....
Penthouse.16.05.02.Nicole.Gr...
PornMegaLoad.17.06.21.Sherry...
NuruMassage.17.06.21.Avi.Lov...
MomKnowsBest.17.06.23.Caroli...
PornstarPlatinum.17.06.22.Al...
NaughtyOffice.17.06.23.Natal...
Porntugal.15.12.04.Susana.Me...
Porntugal.15.12.02.Rebecca.P...
Passion-HD.17.06.24.Kenzie.K...
Nubiles.17.06.21.Krystyna.Lo...
Porntugal.15.12.05.Scarlett....
NubileFilms.17.06.21.Melody....
MissaX.17.06.02.Penny.Pax.Th...

3D
Storm.Surfers.3D.2012.Bluray...
Die.irre.Heldentour.des.Bill...
Die.Bestimmung.Insurgent.3D....
Die.Bestimmung.Insurgent.3D....
The.Great.Wall.3D.2016.multi...
San.Andreas.3D.2015.German.D...
Mojin.The.Lost.Legend.3D.201...
The.LEGO.Batman.Movie.3D.201...
The.LEGO.Batman.Movie.2017.3...
The.LEGO.Batman.Movie.2017.3...
Kraftwerk.3D.12345678.2016.2...
Die.irre.Heldentour.des.Bill...
Die.irre.Heldentour.des.Bill...
L.A.Outlaws.Die.Gesetzlosen....
L.A.Outlaws.Die.Gesetzlosen....

Old_Stuff
Lie.With.Me.Liebe.Mich.2005....
Zurueck.zu.Dir.2000.GERMAN.A...
P.O.E.-.Project.of.Evil.UNCU...
Fields.of.the.Dead.3D.2014.D...
Feuerwerk.am.helllichten.Tag...
Pitch.Perfect.2012.German.DT...
Das.A-Team.S05.German.DUBBED...
Das.A-Team.S05.German.DUBBED...
House.Rules.for.Bad.Girls.3D...
Return.To.Nuke.Em.High.Volum...
Dragons.of.Camelot.2014.DUAL...
Amy.Sie.oeffnet.das.Tor.zur....
13.Eerie.We.Prey.For.You.UNC...
Codename.U.N.C.L.E.2015.MULT...
Halloween.Resurrection.2002....

Musik
The.Beatles.Sgt.Peppers.Lone...
The.Prometheus.Dolby.Atmos.E...
R.E.M.OUT.OF.TIME.25th.Anniv...
The.Rolling.Stones.GRRR.BR-A...
Mussorgsky.Bilder.einer.Auss...
Yes.-.The.Yes.Album.Bluray-A...
Carlos.Heredia.Gypsy.Flamenc...
SPES.2014.complete.Bluray.un...
Carlos.Santana.Collection.19...
Pink.Floyd.The.Endless.River...
The.Hyperion.Romantic.Piano....
Putumayo.113.CD.Flac.lossles...

Filme
Das.Messer.1985.GERMAN.720p....
Die.Konfirmation.2017.GERMAN...
Chaos.unterm.Korb.1995.Germa...
Crossroads.1986.German.AC3D....
Fist.of.God.2014.German.1080...
Fist.of.God.2014.German.720p...
Kong.Skull.Island.2017.COMPL...
Best.of.the.Best.3.No.Turnin...
Superstore.S01-S02.German.DL...
Superstore.S01-S02.German.DL...
Fear.The.Walking.Dead.S03.Ge...
American.Crime.S03.GERMAN.DL...
Best.of.the.Best.3.No.Turnin...
Best.of.the.Best.3.No.Turnin...
American.Crime.S03.GERMAN.72...
Pretty.Little.Liars.S07.Germ...
Preacher.S02.GERMAN.DL.DUBBE...
Preacher.S02.GERMAN.Dubbed.7...
GLOW.S01.COMPLETE.German.DL....
Gotham.S03.GERMAN.DUBBED.DL....
Gotham.S03.GERMAN.DUBBED.DL....
Vampire.Diaries.S08.GERMAN.D...
The.Vampire.Diaries.S08.GERM...
Angie.Tribeca.S03.GERMAN.DUB...

 
 
El.Chapo.S01.COMPLETE.German.720p.WebHD.x264-AIDA
Jahr: 2017
Genre: Drama
Sprache: Deutsch AC3
Laufzeit: 55min je Folge
Bitrate: 2600 Kbps
Format: MKV
Größe: 1,2 GB je Folge
Release:

Beschreibung:

Joaquin Guzman (Marco de la O) soll eines Tages als El Chapo zu einem der gefürchteten Drogenbosse aller Zeiten werden. Bevor es jedoch so weit ist, fängt seine Geschichte im Mexiko des Jahres 1985 an, wo er als Handlanger für das Guadalajara-Kartell tätig ist und erste Erfahrungen im illegalen Metier des Drogenschmuggels sammelt. Aus dieser Erfahrung heraus gründet er schon bald sein eigenes Imperium.



General
Complete name                            : El.Chapo.S01E01.German.720p.WebHD.x264.iNTERNAL-AIDA\el.chapo.s01e01.german.720p.webhd.x264.internal-aida.mkv
Format                                   : Matroska
Format version                           : Version 2
File size                                : 1.17 GiB
Duration                                 : 54mn 43s
Overall bit rate                         : 3 064 Kbps
Writing application                      : mkvmerge v6.6.0 ('The Edge Of The In Between') built on Dec 1 2013 17:55:00
Writing library                          : libebml v1.3.0 + libmatroska v1.4.1

Video
ID                                       : 1
Format                                   : AVC
Format/Info                              : Advanced Video Codec
Format profile                           : High@L4.1
Format settings, CABAC                   : Yes
Format settings, ReFrames                : 5 frames
Codec ID                                 : V_MPEG4/ISO/AVC
Duration                                 : 54mn 43s
Bit rate                                 : 2 619 Kbps
Width                                    : 1 280 pixels
Height                                   : 672 pixels
Display aspect ratio                     : 1.905
Frame rate mode                          : Constant
Frame rate                               : 23.976 fps
Color space                              : YUV
Chroma subsampling                       : 4:2:0
Bit depth                                : 8 bits
Scan type                                : Progressive
Bits/(Pixel*Frame)                       : 0.127
Stream size                              : 1.00 GiB (85%)
Writing library                          : x264 core 150 r2833 df79067
Encoding settings                        : cabac=1 / ref=5 / deblock=1:-3:-3 / analyse=0x3:0x133 / me=umh / subme=8 / psy=1 / psy_rd=1.00:0.15 / mixed_ref=1 / me_range=16 / chroma_me=1 / trellis=1 / 8x8dct=1 / cqm=0 / deadzone=21,11 / fast_pskip=0 / chroma_qp_offset=-3 / threads=12 / lookahead_threads=2 / sliced_threads=0 / nr=0 / decimate=1 / interlaced=0 / bluray_compat=0 / constrained_intra=0 / bframes=3 / b_pyramid=2 / b_adapt=2 / b_bias=0 / direct=3 / weightb=1 / open_gop=0 / weightp=2 / keyint=240 / keyint_min=24 / scenecut=40 / intra_refresh=0 / rc_lookahead=50 / rc=crf / mbtree=1 / crf=19.0 / qcomp=0.60 / qpmin=0 / qpmax=69 / qpstep=4 / ip_ratio=1.40 / aq=1:1.00
Language                                 : English
Default                                  : Yes
Forced                                   : No

Audio
ID                                       : 2
Format                                   : AC-3
Format/Info                              : Audio Coding 3
Mode extension                           : CM (complete main)
Format settings, Endianness              : Big
Codec ID                                 : A_AC3
Duration                                 : 54mn 43s
Bit rate mode                            : Constant
Bit rate                                 : 384 Kbps
Channel(s)                               : 6 channels
Channel positions                        : Front: L C R, Side: L R, LFE
Sampling rate                            : 48.0 KHz
Bit depth                                : 16 bits
Compression mode                         : Lossy
Stream size                              : 150 MiB (13%)
Language                                 : German
Default                                  : Yes
Forced                                   : No



Download:
Share-Online.biz Share-Online.bizShare-Online.bizShare-Online.biz | Uploaded.net Uploaded.netUploaded.netUploaded.net
 

Kommentare