Wir sind wenn hd-area.org mal ausfällt unter hd-area.biz erreichbar


Hier klickenfür Informationen zur Umgehung staatlicher Zensurmaßnahmen




Filmwünsche können bei uns im Forum abgegeben werden

Wir Speichern Nicht




 
 
 
Top Releases
Lion.der.lange.Weg.nach.Haus...
Live.by.Night.2016.German.Du...
I.am.not.your.Negro.2016.Ger...
I.am.not.your.Negro.2016.Ger...
The.Devils.Candy.2015.German...
Erpressung.Wie.viel.ist.dein...
Hell.or.High.Water.2016.Germ...
Sicario.2015.German.DTS.DL.1...
Loving.2016.German.DTS.DL.10...
Der.grosse.Trip.Wild.2014.Ge...

Cinedubs
King.Arthur.Legend.of.the.Sw...
King.Arthur.Legend.of.the.Sw...
Chips.German.DL.AC3.Dubbed.7...
Chips.German.DL.AC3.Dubbed.1...
Kong.Skull.Island.German.DL....
Kong.Skull.Island.German.DL....
Resident.Evil.The.Final.Chap...
Resident.Evil.The.Final.Chap...
Resident.Evil.The.Final.Chap...
Resident.Evil.Vendetta.Germa...

Neuerscheinungen 2016-17
Dr.Giggles.1992.UNCUT.DUAL.C...
VOICE.FROM.THE.STONE.2017.DU...
Dont.Hang.Up.2016.MULTi.COMP...
DER.SCHWARZE.NAZI.2016.GERMA...
Let.Her.Out.2016.DUAL.COMPLE...
Dont.Hang.Up.2016.German.DL....
Voice.from.the.Stone.Ruf.aus...
Let.Her.Out.2016.German.720p...
Dont.Hang.Up.2016.German.DL....
Dont.Hang.Up.2016.German.720...

XXX
Gokudouno.Bizuma.Dai.Zenpen....
Lustery.E51.Lucy.And.Hunter....
HardTied.17.06.21.Maddy.Orei...
JulesJordan.17.06.21.Holly.H...
MikaelaWitt.17.03.31.Fetish....
JamesDeen.17.06.23.Anna.Morn...
HussieAuditions.17.06.24.Aal...
LadyVoyeurs.17.05.31.Jade.Lo...
Heyzo.17.04.02.Shouko.Takash...
Intimacy.7.XXX.1080p.WEBRip....
MikaelaWitt.17.04.14.Boyfrie...
LethalHardcore.Girl.Scout.No...
GangbangCreampie.17.06.23.G1...
Heyzo.17.03.31.Ei.Kato.A.Pur...
Joymii.17.06.23.Lexi.Dona.Fu...
HotAndMean.17.06.21.Anna.De....
MikaelaWitt.17.04.21.Bath.Ti...
LittleCapriceDreams.17.06.20...
MikaelaWitt.17.04.05.Bitch.T...
FuckingMachines.17.06.21.Lyr...

3D
Kong.Skull.Island.3D.2017.CO...
Storm.Surfers.3D.2012.Bluray...
Die.irre.Heldentour.des.Bill...
Die.Bestimmung.Insurgent.3D....
Die.Bestimmung.Insurgent.3D....
The.Great.Wall.3D.2016.multi...
San.Andreas.3D.2015.German.D...
Mojin.The.Lost.Legend.3D.201...
The.LEGO.Batman.Movie.3D.201...
The.LEGO.Batman.Movie.2017.3...
The.LEGO.Batman.Movie.2017.3...
Kraftwerk.3D.12345678.2016.2...
Die.irre.Heldentour.des.Bill...
Die.irre.Heldentour.des.Bill...
L.A.Outlaws.Die.Gesetzlosen....

Old_Stuff
Tuerkisch.fuer.Anfaenger.S02...
Tuerkisch.fuer.Anfaenger.S01...
Jurassic.Park.1993.German.DT...
Vergessene.Welt.Jurassic.Par...
Lie.With.Me.Liebe.Mich.2005....
Zurueck.zu.Dir.2000.GERMAN.A...
P.O.E.-.Project.of.Evil.UNCU...
Fields.of.the.Dead.3D.2014.D...
Feuerwerk.am.helllichten.Tag...
Pitch.Perfect.2012.German.DT...
Das.A-Team.S05.German.DUBBED...
Das.A-Team.S05.German.DUBBED...
House.Rules.for.Bad.Girls.3D...
Return.To.Nuke.Em.High.Volum...
Dragons.of.Camelot.2014.DUAL...

Musik
The.Beatles.Sgt.Peppers.Lone...
The.Prometheus.Dolby.Atmos.E...
R.E.M.OUT.OF.TIME.25th.Anniv...
The.Rolling.Stones.GRRR.BR-A...
Mussorgsky.Bilder.einer.Auss...
Yes.-.The.Yes.Album.Bluray-A...
Carlos.Heredia.Gypsy.Flamenc...
SPES.2014.complete.Bluray.un...
Carlos.Santana.Collection.19...
Pink.Floyd.The.Endless.River...
The.Hyperion.Romantic.Piano....
Putumayo.113.CD.Flac.lossles...

Filme
METALLICA.THROUGH.THE.NEVER....
MacGyver.S01.GERMAN.DUBBED.D...
The.Blacklist.S04.COMPLETE.G...
The.Blacklist.S04.COMPLETE.G...
MacGyver.S01.GERMAN.DUBBED.D...
Legends.of.Tomorrow.S02.GERM...
Legends.of.Tomorrow.S02.GERM...
Blindspot.S02.German.DUBBED....
Blindspot.S02.German.DUBBED....
Gotham.S03.GERMAN.DUBBED.DL....
Gotham.S03.GERMAN.DUBBED.DL....
Poldark.2015.S02.German.DL.D...
Fear.The.Walking.Dead.S03.Ge...
Fear.The.Walking.Dead.S03.Ge...
Violent.Shit.The.Movie.GERMA...
Violent.Shit.The.Movie.GERMA...
Antigang.2015.German.1080p.B...
Antigang.2015.German.720p.Bl...
Jessabelle.Die.Vorsehung.201...
Sanctuary.US.S04D01-3.iNTERN...
I.Saw.the.Devil.-.Rache.ist....
Blood.Diamond.2006.German.AC...
Joe.Dreck.2.Extended.2015.Ge...
Joe.Dreck.2.Extended.2015.Ge...

 
 
Candy.Reise.der.Engel.2006.German.DL.1080p.BluRay.x264-DETAiLS
Jahr: 2006
Genre: Drama
Sprache: Deutsch DTS | Englisch DTS
Laufzeit: 1h 48mn
Bitrate: 13.8 Mbps
Format: MKV
Größe: 10.4 GiB
Release:

Beschreibung:

Malerin Candy (Abbie Cornish) und der arme Poet Dan (Heath Ledger) lieben einander, die Kunst und den Stoff – leider nicht in dieser Reihenfolge. Bald bestimmt die Abhängigkeit vom Heroin den Alltag und die Beziehung: Dan hängt nur noch rum, während Candy die Treppe nach unten von der ambitionierten Künstlerin über den Straßenstrich bis zur Klapsmühle im Dauerlauf nimmt. Ihre Schwangerschaft könnte den Teufelskreis durchbrechen, doch zwischen Wollen und Können liegt in ihrem Fall ein weiter Weg.



Unique ID                                : 335754402294486999897627980902190497891 (0xFC97F21B9D916FEE50398841868F4063)
Complete name                            : d-candyrde-1080p.mkv
Format                                   : Matroska
Format version                           : Version 2
File size                                : 10.4 GiB
Duration                                 : 1h 48mn
Overall bit rate                         : 13.8 Mbps
Movie name                               : Candy - Reise der Engel
Encoded date                             : UTC 2011-12-22 20:34:44
Writing application                      : mkvmerge v4.9.1 ('Ich will') gebaut am Sep 30 2011 22:45:24
Writing library                          : libebml v1.2.1 + libmatroska v1.1.1

Video
ID                                       : 1
Format                                   : AVC
Format/Info                              : Advanced Video Codec
Format profile                           : High@L4.1
Format settings, CABAC                   : Yes
Format settings, ReFrames                : 4 frames
Codec ID                                 : V_MPEG4/ISO/AVC
Duration                                 : 1h 48mn
Bit rate                                 : 10.5 Mbps
Width                                    : 1 920 pixels
Height                                   : 1 040 pixels
Display aspect ratio                     : 1.85:1
Frame rate mode                          : Constant
Frame rate                               : 23.976 fps
Color space                              : YUV
Chroma subsampling                       : 4:2:0
Bit depth                                : 8 bits
Scan type                                : Progressive
Bits/(Pixel*Frame)                       : 0.220
Stream size                              : 7.94 GiB (76%)
Title                                    : Candy - Reise der Engel
Writing library                          : x264 core 120 r2120 0c7dab9
Encoding settings                        : cabac=1 / ref=4 / deblock=1:-1:-1 / analyse=0x3:0x133 / me=umh / subme=7 / psy=1 / psy_rd=1.00:0.15 / mixed_ref=1 / me_range=16 / chroma_me=1 / trellis=1 / 8x8dct=1 / cqm=0 / deadzone=21,11 / fast_pskip=0 / chroma_qp_offset=-3 / threads=12 / sliced_threads=0 / nr=0 / decimate=1 / interlaced=0 / bluray_compat=0 / constrained_intra=0 / bframes=3 / b_pyramid=2 / b_adapt=1 / b_bias=0 / direct=3 / weightb=1 / open_gop=0 / weightp=2 / keyint=250 / keyint_min=23 / scenecut=40 / intra_refresh=0 / rc_lookahead=40 / rc=crf / mbtree=1 / crf=20.0 / qcomp=0.60 / qpmin=0 / qpmax=69 / qpstep=4 / ip_ratio=1.40 / aq=1:1.00
Default                                  : Yes
Forced                                   : No

Audio #1
ID                                       : 2
Format                                   : DTS
Format/Info                              : Digital Theater Systems
Mode                                     : 16
Format settings, Endianness              : Big
Codec ID                                 : A_DTS
Duration                                 : 1h 48mn
Bit rate mode                            : Constant
Bit rate                                 : 1 509 Kbps
Channel(s)                               : 6 channels
Channel positions                        : Front: L C R, Side: L R, LFE
Sampling rate                            : 48.0 KHz
Bit depth                                : 24 bits
Compression mode                         : Lossy
Stream size                              : 1.14 GiB (11%)
Title                                    : DTS
Language                                 : German
Default                                  : Yes
Forced                                   : No

Audio #2
ID                                       : 3
Format                                   : DTS
Format/Info                              : Digital Theater Systems
Mode                                     : 16
Format settings, Endianness              : Big
Codec ID                                 : A_DTS
Duration                                 : 1h 48mn
Bit rate mode                            : Constant
Bit rate                                 : 1 509 Kbps
Channel(s)                               : 6 channels
Channel positions                        : Front: L C R, Side: L R, LFE
Sampling rate                            : 48.0 KHz
Bit depth                                : 24 bits
Compression mode                         : Lossy
Stream size                              : 1.14 GiB (11%)
Title                                    : DTS
Language                                 : English
Default                                  : No
Forced                                   : No

Text
ID                                       : 4
Format                                   : UTF-8
Codec ID                                 : S_TEXT/UTF8
Codec ID/Info                            : UTF-8 Plain Text
Title                                    : Forced Subs
Language                                 : German
Default                                  : Yes
Forced                                   : No


Download:
Share Online | Uploaded Share Online | UploadedShare Online | UploadedShare Online | Uploaded
 

Kommentare