Wir sind wenn hd-area.org mal ausfällt unter hd-area.biz erreichbar


Hier klickenfür Informationen zur Umgehung staatlicher Zensurmaßnahmen




Filmwünsche können bei uns im Forum abgegeben werden

Wir Speichern Nicht




 
 
 
Top Releases
Die.rote.Schildkroete.2016.B...
Volt.2016.German.COMPLETE.BL...
Chips.Chip.Happens.2017.DUAL...
A.United.Kingdom.2016.MULTI....
El.Bar.Fruehstueck.mit.Leich...
Chips.Chip.Happens.2017.Germ...
Chips.Chip.Happens.2017.Germ...
Chips.Chip.Happens.2017.Germ...
Black.Butterfly.Der.Moerder....
Life.2017.German.Dubbed.DL.2...

Cinedubs
Baywatch.GERMAN.DL.AC3.Dubbe...
Baywatch.GERMAN.DL.AC3.Dubbe...
Alibi.com.2017.German.AC3MD....
Alibi.com.2017.German.AC3MD....
Gesetz.der.Familie.2016.Germ...
Gesetz.der.Familie.2016.Germ...
Die.Mumie.2017.German.AC3.Du...
Die.Mumie.2017.German.AC3.Du...
Alien.Covenant.2017.German.A...
Alien.Covenant.2017.German.A...

Neuerscheinungen 2016-17
The.Game.20.Anniversary.Edit...
Die.Schluempfe.Das.verlorene...
End.Of.A.Gun.MULTi.COMPLETE....
Nacht.und.Nebel.1956.DUAL.CO...
Boys.in.The.Trees.2016.MULTi...
Schatz.nimm.du.sie.GERMAN.10...
Fist.Fight.2017.German.DL.10...
Kill.Switch.Two.Worlds.Colli...
Die.Blumen.Von.Gestern.2016....
Verleugnung.2016.German.DL.1...

XXX
PascalsSubSluts.17.08.10.Cha...
1By-Day.17.08.10.Rossella.Vi...
InterracialBlowbang.17.08.10...
Deep.2.XXX.1080p.WEBRip.MP4-...
Deep.2.XXX.720p.WEBRip.MP4-V...
FamilyStrokes.17.08.10.Sami....
FirstTimeAuditions.17.08.10....
HollyRandall.17.08.10.Ana.Fo...
AussieAss.17.07.12.Monte.Coo...
ATKGirlfriends.17.08.10.Arie...
AllOver30.17.08.10.Drew.Jone...
DayWithAPornstar.17.08.10.Ka...
HouseOfTaboo.17.08.10.Amirah...
ImmoralLive.17.08.10.Cathy.H...
Bijin.Zu.16.XXX.720p.WEBRip....
ExxxtraSmall.17.08.10.Sadie....
Anilos.17.08.10.Velvet.Skye....
CzechGangBang.17.01.10.Gangb...
IHaveAWife.17.08.10.Willow.W...
Bakunyuu.Musume.Shuuchi.Chou...

3D
Die.Schluempfe.Das.verlorene...
Wundervolle.Welt.3D.2015.DOK...
Terre.des.ours.-.Im.Land.der...
King.Arthur.Legend.of.the.Sw...
The.Curse.of.Sleeping.Beauty...
The.Curse.of.Sleeping.Beauty...
King.Arthur.Legend.of.the.Sw...
The.Curse.of.Sleeping.Beauty...
King.Arthur.Legend.of.the.Sw...
King.Arthur.Legend.of.the.Sw...
Die.Schoene.und.das.Biest.3D...
Ghost.in.the.Shell.3D.HSBS.2...
Die.Schoene.und.das.Biest.3D...
Wildlife.South.Africa.3D.Par...
Amerikanische.Zuege.und.Land...

Old_Stuff
Prison.Break.S01.COMPLETE.20...
King.of.Queens.S09.DUAL.COMP...
King.of.Queens.S08.DUAL.COMP...
King.of.Queens.S07.DUAL.COMP...
Gods.Army.1.UNCUT.1995.Germa...
Gods.Army.II.Die.Prophezeiun...
Gods.Army.III.Die.Entscheidu...
Gods.Army.IV.Die.Offenbarung...
The.Family.Guy.Star.Wars.Sag...
Tuerkisch.fuer.Anfaenger.S02...
Tuerkisch.fuer.Anfaenger.S01...
Jurassic.Park.1993.German.DT...
Vergessene.Welt.Jurassic.Par...
Lie.With.Me.Liebe.Mich.2005....
Zurueck.zu.Dir.2000.GERMAN.A...

Musik
The.Beatles.Sgt.Peppers.Lone...
The.Prometheus.Dolby.Atmos.E...
R.E.M.OUT.OF.TIME.25th.Anniv...
The.Rolling.Stones.GRRR.BR-A...
Mussorgsky.Bilder.einer.Auss...
Yes.-.The.Yes.Album.Bluray-A...
Carlos.Heredia.Gypsy.Flamenc...
SPES.2014.complete.Bluray.un...
Carlos.Santana.Collection.19...
Pink.Floyd.The.Endless.River...
The.Hyperion.Romantic.Piano....
Putumayo.113.CD.Flac.lossles...

Filme
Twin.Peaks.S03.German.DL.DUB...
Twin.Peaks.S03.German.DL.DUB...
Geralt.von.Riva.Der.Hexer.20...
The.Flash.S03.GERMAN.DUBBED....
The.Flash.S03.GERMAN.DUBBED....
Gotham.S03.GERMAN.DUBBED.DL....
Gotham.S03.GERMAN.DUBBED.DL....
This.is.Us.S01.German.1080p....
Pure.Genius.S01.German.720p....
German.Angst.2015.German.DTS...
Nemesis.1992.German.DL.1080p...
Newsmakers.2009.German.1080p...
Nazi.Bauwerke.Utopie.und.Gro...
Oktober.November.2013.German...
Sechs.Tage.sieben.Nächte.19...
Star.Kid.1997.Uncut.AC3D.108...
Mission.To.Mars.2000.1080p.B...
Lance.Stirb.niemals.jung.Nev...
Lance.Stirb.niemals.jung.Nev...
Nazi.Bauwerke.Utopie.und.Gro...
The.Blacklist.S04D01-6.MULTi...
Dracula.1958.Uncut.German.Du...
Ueberleben.-.Alive.1993.Germ...
Marvels.The.Defenders.S01.CO...

 
 
Der.Fluch.der.goldenen.Blume.2006.German.1080p.BluRay.x264-DETAiLS
Jahr: 2006
Genre: Action, Drama
Sprache: Deutsch DTS
Laufzeit: 1h 54mn
Bitrate: 10.5 Mbps
Format: MKV
Größe: 8.36 GiB
Release:

Beschreibung:

Am Hofe der Tang Dynastie im 10. Jahrhundert. Der Kaiser (Chow Yun-Fat) kehrt mit seinem Sohn Prinz Jai (Jay Chou) zu Palast und ungeliebter zweiter Frau Phoenix (Gong Li) zurück, die sich in eine heimliche Affäre mit Kronprinz Wan (Liu Ye) gestürzt hat. Jai entdeckt, dass der Kaiser seine Frau allmählich heimtückisch vergiftet. Sie zettelt in höchster Not ein Komplott gegen ihn an. Auch der dritte Bruder, Prinz Yu (Qin Junjie), überblickt die Intrigen und Allianzen bald nicht mehr. Am Tag des Chrysanthemen-Fests kommt es zur Entscheidung.



General
Unique ID                                : 92615855530506111835255534441807614128 (0x45AD2A3A1B16C2F186921FE95C5E10B0)
Complete name                            : d-goldblume-1080p.mkv
Format                                   : Matroska
Format version                           : Version 2
File size                                : 8.36 GiB
Duration                                 : 1h 54mn
Overall bit rate                         : 10.5 Mbps
Movie name                               : Der Fluch der goldenen Blume
Encoded date                             : UTC 2011-10-24 03:37:36
Writing application                      : mkvmerge v4.9.1 ('Ich will') gebaut am Jul 11 2011 21:28:54
Writing library                          : libebml v1.2.1 + libmatroska v1.1.1

Video
ID                                       : 1
Format                                   : AVC
Format/Info                              : Advanced Video Codec
Format profile                           : High@L4.1
Format settings, CABAC                   : Yes
Format settings, ReFrames                : 5 frames
Codec ID                                 : V_MPEG4/ISO/AVC
Duration                                 : 1h 54mn
Bit rate                                 : 8 763 Kbps
Width                                    : 1 920 pixels
Height                                   : 816 pixels
Display aspect ratio                     : 2.35:1
Frame rate mode                          : Constant
Frame rate                               : 23.976 fps
Color space                              : YUV
Chroma subsampling                       : 4:2:0
Bit depth                                : 8 bits
Scan type                                : Progressive
Bits/(Pixel*Frame)                       : 0.233
Stream size                              : 6.99 GiB (84%)
Title                                    : Der Fluch der goldenen Blume
Writing library                          : x264 core 118 r2085 8a62835
Encoding settings                        : cabac=1 / ref=5 / deblock=1:-1:-1 / analyse=0x3:0x133 / me=umh / subme=7 / psy=1 / psy_rd=1.00:0.00 / mixed_ref=1 / me_range=16 / chroma_me=1 / trellis=1 / 8x8dct=1 / cqm=0 / deadzone=21,11 / fast_pskip=0 / chroma_qp_offset=-2 / threads=12 / sliced_threads=0 / nr=0 / decimate=1 / interlaced=0 / bluray_compat=0 / constrained_intra=0 / bframes=3 / b_pyramid=2 / b_adapt=1 / b_bias=0 / direct=3 / weightb=1 / open_gop=0 / weightp=2 / keyint=250 / keyint_min=23 / scenecut=40 / intra_refresh=0 / rc_lookahead=40 / rc=crf / mbtree=1 / crf=20.0 / qcomp=0.60 / qpmin=0 / qpmax=69 / qpstep=4 / ip_ratio=1.40 / aq=1:1.00
Default                                  : Yes
Forced                                   : No

Audio
ID                                       : 2
Format                                   : DTS
Format/Info                              : Digital Theater Systems
Mode                                     : 16
Format settings, Endianness              : Big
Codec ID                                 : A_DTS
Duration                                 : 1h 54mn
Bit rate mode                            : Constant
Bit rate                                 : 1 509 Kbps
Channel(s)                               : 6 channels
Channel positions                        : Front: L C R, Side: L R, LFE
Sampling rate                            : 48.0 KHz
Bit depth                                : 24 bits
Compression mode                         : Lossy
Stream size                              : 1.20 GiB (14%)
Title                                    : DTS
Language                                 : German
Default                                  : Yes
Forced                                   : No

Text
ID                                       : 3
Format                                   : UTF-8
Codec ID                                 : S_TEXT/UTF8
Codec ID/Info                            : UTF-8 Plain Text
Title                                    : Forced Subs
Language                                 : German
Default                                  : Yes
Forced                                   : No


Download:
Share Online | Uploaded Share Online | UploadedShare Online | UploadedShare Online | Uploaded
 

Kommentare