Wir sind wenn hd-area.org mal ausfällt unter hd-area.biz erreichbar


Hier klickenfür Informationen zur Umgehung staatlicher Zensurmaßnahmen




Filmwünsche können bei uns im Forum abgegeben werden

Wir Speichern Nicht




 
 
 
Top Releases
Free.Fire.2016.DUAL.COMPLETE...
Batman.and.Harley.Quinn.2017...
Batman.and.Harley.Quinn.2017...
Free.Fire.German.720p.BluRay...
Batman.und.Harley.Quinn.2017...
A.United.Kingdom.2016.German...
Bis.Wir.Uns.Wiedersehen.2016...
Guardians.of.the.Galaxy.Vol....
Bis.wir.uns.wiedersehen.Till...
Boys.in.the.Trees.2016.Germa...

Cinedubs
All.Eyez.on.Me.German.MD.DL....
All.Eyez.on.Me.German.MD.DL....
Girls.Night.Out.2017.German....
Girls.Night.Out.2017.German....
Girls.Night.Out.2017.German....
Boston.German.DL.AC3.Dubbed....
Boston.German.DL.AC3.Dubbed....
Baywatch.UNRATED.German.DL.A...
Baywatch.UNRATED.German.DL.A...
Alien.Covenant.German.DL.AC3...

Neuerscheinungen 2016-17
Vier.gegen.die.Bank.2016.Ger...
El.Bar.Fruehstueck.mit.Leich...
Batman.and.Harley.Quinn.2017...
Freitag.der.13.Killer.Cut.Fr...
Blood.Orange.2016.DUAL.COMPL...
Batman.and.Harley.Quinn.2017...
Attack.of.the.Killer.Donuts....
Die.Schluempfe.Das.verlorene...
Bis.der.Regen.kommt.2017.Ger...
Bis.der.Regen.kommt.2017.Ger...

XXX
GangbangCreampie.17.08.07.G1...
DorcelClub.17.01.06.Nikita.B...
EvilAngel.POV.Sluts.Anal.Edi...
GrandpasFuckTeens.17.08.12.O...
ElegantAngel.Alexis.Loves.Gi...
GloryHole.17.08.14.Piper.Per...
DorcelClub.17.01.03.Tina.Bla...
FutileStruggles.The.Girls.Ti...
ExposedCasting.17.08.11.Ivan...
Fuck.Me.Furious.2.XXX.1080p....
FakeAgent.17.08.14.Isabella....
FakeTaxi.17.08.13.Cherri.XXX...
FutileStruggles.Nyxon.Hangs....
FutileStruggles.JJ.The.Maid....
GirlsWay.17.08.14.Penny.Pax....
EverythingButt.17.08.11.Lea....
AwesomeHandjobs.E73.Cum.Guzz...
EvilAngel.Gape.Queens.XXX.72...
ElegantAngel.MILF.Performers...
ElegantAngel.Butt.Vs.Slut.Vs...

3D
Die.Schluempfe.Das.verlorene...
Die.Schluempfe.Das.verlorene...
Wundervolle.Welt.3D.2015.DOK...
Terre.des.ours.-.Im.Land.der...
King.Arthur.Legend.of.the.Sw...
The.Curse.of.Sleeping.Beauty...
The.Curse.of.Sleeping.Beauty...
King.Arthur.Legend.of.the.Sw...
The.Curse.of.Sleeping.Beauty...
King.Arthur.Legend.of.the.Sw...
King.Arthur.Legend.of.the.Sw...
Die.Schoene.und.das.Biest.3D...
Ghost.in.the.Shell.3D.HSBS.2...
Die.Schoene.und.das.Biest.3D...
Wildlife.South.Africa.3D.Par...

Old_Stuff
Geraubte.Kuesse.1968.DUAL.CO...
Prison.Break.S02.COMPLETE.20...
Planet.der.Affen.Revolution....
Prison.Break.S01.COMPLETE.20...
King.of.Queens.S09.DUAL.COMP...
King.of.Queens.S08.DUAL.COMP...
King.of.Queens.S07.DUAL.COMP...
Gods.Army.1.UNCUT.1995.Germa...
Gods.Army.II.Die.Prophezeiun...
Gods.Army.III.Die.Entscheidu...
Gods.Army.IV.Die.Offenbarung...
The.Family.Guy.Star.Wars.Sag...
Tuerkisch.fuer.Anfaenger.S02...
Tuerkisch.fuer.Anfaenger.S01...
Jurassic.Park.1993.German.DT...

Musik
The.Beatles.Sgt.Peppers.Lone...
The.Prometheus.Dolby.Atmos.E...
R.E.M.OUT.OF.TIME.25th.Anniv...
The.Rolling.Stones.GRRR.BR-A...
Mussorgsky.Bilder.einer.Auss...
Yes.-.The.Yes.Album.Bluray-A...
Carlos.Heredia.Gypsy.Flamenc...
SPES.2014.complete.Bluray.un...
Carlos.Santana.Collection.19...
Pink.Floyd.The.Endless.River...
The.Hyperion.Romantic.Piano....
Putumayo.113.CD.Flac.lossles...

Filme
Pawn.2013.German.1080p.DL.DT...
You.Are.Not.Alone.Jemand.ist...
Der.Kindergarten.Daddy.2003....
Boeing.Boeing.1965.German.AC...
Kazaam.Der.Geist.der.aus.der...
N.Y.C.Underground.2013.Germa...
Spiel.mit.mir.Billy.Roses.Ju...
Spiel.mit.mir.Billy.Roses.Ju...
The.Last.Ship.S04.GERMAN.DUB...
The.Last.Ship.S04.GERMAN.DUB...
Dark.Matter.S03.GERMAN.DUBBE...
Dark.Matter.S03.GERMAN.DUBBE...
The.Big.Bang.Theory.S10.GERM...
The.Big.Bang.Theory.S10.GERM...
Wrecked.S02.GERMAN.DUBBED.72...
Game.of.Thrones.S07.German.D...
Game.of.Thrones.S07.German.D...
Wanted.2008.DTS.Open.Matte.1...
Dellamorte.Dellamore.German....
Dem.Himmel.so.nah.1995.Germa...
Die.Inquisition.2014.German....
Arachnophobia.Remastered.199...
London.Falling.2014.German.D...
P.51.Dragon.Fighter.2014.Ger...

 
 
Der.Mann.den.sie.Pferd.nannten.1970.German.DL.1080p.BluRay.x264-DETAiLS
Jahr: 1970
Genre: Adventure, Drama, Western
Sprache: Deutsch DTS | Englisch DTS
Laufzeit: 1h 55mn
Bitrate: 12.1 Mbps
Format: MKV
Größe: 9.76 GiB
Release:

Beschreibung:

Sie hatten noch nie einen Weissen gesehen. Sie legten ihm einen Strick um den Hals und Häuptling Gelbe Hand schenkte ihn seiner Mutter Büffelkuh-Haupt als Lasttier. So kommt Lord John Morgan in das Lager der Sioux. In eine Welt, aus der es für ihn kein Entrinnen gibt. Aber leben ist besser als sterben. Und er zahlt den Preis, den sie von ihm verlangen. Er unterzieht sich ihren Ritualen. Er tötet zwei feindliche Schoschonen. Er bringt ihnen den ersten Skalp. Er besteht die grauamste aller Prüfungen : Das Ritual des Sonnengelübtes. Und dann nimmt er sich eine ihrer Frauen. Aber er will nach England zurück. Die Schoschonen starten ein erneutes, blutiges Gemetzel. Der Häuptling wird ihr Opfer und Johns junge Frau stirbt in seinen Armen. Der Mann, den sie Pferd nannten, ist jetzt ein freier Mann …



Unique ID                                : 191402062088142320609590417908986104410 (0x8FFEB23F5C3E3337999D70CBD1094A5A)
Complete name                            : d-pferdnannten-1080p.mkv
Format                                   : Matroska
Format version                           : Version 2
File size                                : 9.76 GiB
Duration                                 : 1h 55mn
Overall bit rate                         : 12.1 Mbps
Movie name                               : Der Mann, den sie Pferd nannten
Encoded date                             : UTC 2011-07-02 05:41:56
Writing application                      : mkvmerge v4.8.0 ('I Got The...') gebaut am May 24 2011 03:12:58
Writing library                          : libebml v1.2.0 + libmatroska v1.1.0

Video
ID                                       : 1
Format                                   : AVC
Format/Info                              : Advanced Video Codec
Format profile                           : High@L4.1
Format settings, CABAC                   : Yes
Format settings, ReFrames                : 5 frames
Codec ID                                 : V_MPEG4/ISO/AVC
Duration                                 : 1h 55mn
Bit rate                                 : 9 830 Kbps
Width                                    : 1 920 pixels
Height                                   : 816 pixels
Display aspect ratio                     : 2.35:1
Frame rate mode                          : Constant
Frame rate                               : 23.976 fps
Color space                              : YUV
Chroma subsampling                       : 4:2:0
Bit depth                                : 8 bits
Scan type                                : Progressive
Bits/(Pixel*Frame)                       : 0.262
Stream size                              : 7.73 GiB (79%)
Title                                    : Der Mann, den sie Pferd nannten
Writing library                          : x264 core 115 r2008 4c552d8
Encoding settings                        : cabac=1 / ref=5 / deblock=1:0:0 / analyse=0x3:0x133 / me=umh / subme=7 / psy=1 / psy_rd=1.00:0.00 / mixed_ref=1 / me_range=16 / chroma_me=1 / trellis=1 / 8x8dct=1 / cqm=0 / deadzone=21,11 / fast_pskip=0 / chroma_qp_offset=-2 / threads=12 / sliced_threads=0 / nr=0 / decimate=1 / interlaced=0 / bluray_compat=0 / constrained_intra=0 / bframes=3 / b_pyramid=2 / b_adapt=1 / b_bias=0 / direct=3 / weightb=1 / open_gop=0 / weightp=2 / keyint=250 / keyint_min=23 / scenecut=40 / intra_refresh=0 / rc_lookahead=40 / rc=2pass / mbtree=1 / bitrate=9830 / ratetol=1.0 / qcomp=0.60 / qpmin=0 / qpmax=69 / qpstep=4 / cplxblur=20.0 / qblur=0.5 / ip_ratio=1.40 / aq=1:1.00
Default                                  : Yes
Forced                                   : No

Audio #1
ID                                       : 2
Format                                   : DTS
Format/Info                              : Digital Theater Systems
Mode                                     : 16
Format settings, Endianness              : Big
Codec ID                                 : A_DTS
Duration                                 : 1h 55mn
Bit rate mode                            : Constant
Bit rate                                 : 768 Kbps
Channel(s)                               : 1 channel
Channel positions                        : Front: C
Sampling rate                            : 48.0 KHz
Bit depth                                : 24 bits
Compression mode                         : Lossy
Stream size                              : 634 MiB (6%)
Title                                    : DTS
Language                                 : German
Default                                  : Yes
Forced                                   : No

Audio #2
ID                                       : 3
Format                                   : DTS
Format/Info                              : Digital Theater Systems
Mode                                     : 16
Format settings, Endianness              : Big
Codec ID                                 : A_DTS
Duration                                 : 1h 55mn
Bit rate mode                            : Constant
Bit rate                                 : 1 509 Kbps
Channel(s)                               : 6 channels
Channel positions                        : Front: L C R, Side: L R, LFE
Sampling rate                            : 48.0 KHz
Bit depth                                : 24 bits
Compression mode                         : Lossy
Stream size                              : 1.22 GiB (12%)
Title                                    : DTS
Language                                 : English
Default                                  : No
Forced                                   : No

Text
ID                                       : 4
Format                                   : UTF-8
Codec ID                                 : S_TEXT/UTF8
Codec ID/Info                            : UTF-8 Plain Text
Title                                    : Forced Subs
Language                                 : German
Default                                  : Yes
Forced                                   : No


Download:
Share Online | Uploaded Share Online | UploadedShare Online | UploadedShare Online | Uploaded
 

Kommentare