Wir sind wenn hd-area.org mal ausfällt unter hd-area.biz erreichbar


Hier klickenfür Informationen zur Umgehung staatlicher Zensurmaßnahmen




Filmwünsche können bei uns im Forum abgegeben werden

Wir Speichern Nicht




 
 
 
Top Releases
Live.by.Night.2016.German.Du...
I.am.not.your.Negro.2016.Ger...
I.am.not.your.Negro.2016.Ger...
The.Devils.Candy.2015.German...
Erpressung.Wie.viel.ist.dein...
Hell.or.High.Water.2016.Germ...
Sicario.2015.German.DTS.DL.1...
Loving.2016.German.DTS.DL.10...
Der.grosse.Trip.Wild.2014.Ge...
Der.grosse.Trip.Wild.2014.Ge...

Cinedubs
King.Arthur.Legend.of.the.Sw...
King.Arthur.Legend.of.the.Sw...
Chips.German.DL.AC3.Dubbed.7...
Chips.German.DL.AC3.Dubbed.1...
Kong.Skull.Island.German.DL....
Kong.Skull.Island.German.DL....
Resident.Evil.The.Final.Chap...
Resident.Evil.The.Final.Chap...
Resident.Evil.The.Final.Chap...
Resident.Evil.Vendetta.Germa...

Neuerscheinungen 2016-17
Voice.from.the.Stone.Ruf.aus...
Voice.from.the.Stone.Ruf.aus...
The.Shadow.Man.2017.German.D...
Erpressung.Wie.viel.ist.dein...
Nur.48.Stunden.German.1982.D...
Tokyo.Grand.Guignol.2015.COM...
Bon.Voyage.ihr.Idioten.2013....
The.Binding.2016.German.DL.1...
The.Binding.2016.German.720p...
Moontrap.Angriffsziel.Erde.2...

XXX
Penthouse.16.05.01.Crista.Mo...
Penthouse.16.05.02.Molly.Rae...
PascalsSubSluts.17.06.22.Lau...
MikaelaWitt.17.05.19.Foot.Fe...
Nubiles.17.06.23.Krystyna.Pu...
PlumperPass.17.06.23.Veronic...
PixAndVideo.17.06.23.Darcia....
Penthouse.16.05.02.Nicole.Gr...
PornMegaLoad.17.06.21.Sherry...
NuruMassage.17.06.21.Avi.Lov...
MomKnowsBest.17.06.23.Caroli...
PornstarPlatinum.17.06.22.Al...
NaughtyOffice.17.06.23.Natal...
Porntugal.15.12.04.Susana.Me...
Porntugal.15.12.02.Rebecca.P...
Passion-HD.17.06.24.Kenzie.K...
Nubiles.17.06.21.Krystyna.Lo...
Porntugal.15.12.05.Scarlett....
NubileFilms.17.06.21.Melody....
MissaX.17.06.02.Penny.Pax.Th...

3D
Storm.Surfers.3D.2012.Bluray...
Die.irre.Heldentour.des.Bill...
Die.Bestimmung.Insurgent.3D....
Die.Bestimmung.Insurgent.3D....
The.Great.Wall.3D.2016.multi...
San.Andreas.3D.2015.German.D...
Mojin.The.Lost.Legend.3D.201...
The.LEGO.Batman.Movie.3D.201...
The.LEGO.Batman.Movie.2017.3...
The.LEGO.Batman.Movie.2017.3...
Kraftwerk.3D.12345678.2016.2...
Die.irre.Heldentour.des.Bill...
Die.irre.Heldentour.des.Bill...
L.A.Outlaws.Die.Gesetzlosen....
L.A.Outlaws.Die.Gesetzlosen....

Old_Stuff
Lie.With.Me.Liebe.Mich.2005....
Zurueck.zu.Dir.2000.GERMAN.A...
P.O.E.-.Project.of.Evil.UNCU...
Fields.of.the.Dead.3D.2014.D...
Feuerwerk.am.helllichten.Tag...
Pitch.Perfect.2012.German.DT...
Das.A-Team.S05.German.DUBBED...
Das.A-Team.S05.German.DUBBED...
House.Rules.for.Bad.Girls.3D...
Return.To.Nuke.Em.High.Volum...
Dragons.of.Camelot.2014.DUAL...
Amy.Sie.oeffnet.das.Tor.zur....
13.Eerie.We.Prey.For.You.UNC...
Codename.U.N.C.L.E.2015.MULT...
Halloween.Resurrection.2002....

Musik
The.Beatles.Sgt.Peppers.Lone...
The.Prometheus.Dolby.Atmos.E...
R.E.M.OUT.OF.TIME.25th.Anniv...
The.Rolling.Stones.GRRR.BR-A...
Mussorgsky.Bilder.einer.Auss...
Yes.-.The.Yes.Album.Bluray-A...
Carlos.Heredia.Gypsy.Flamenc...
SPES.2014.complete.Bluray.un...
Carlos.Santana.Collection.19...
Pink.Floyd.The.Endless.River...
The.Hyperion.Romantic.Piano....
Putumayo.113.CD.Flac.lossles...

Filme
Die.Konfirmation.2017.GERMAN...
Chaos.unterm.Korb.1995.Germa...
Crossroads.1986.German.AC3D....
Fist.of.God.2014.German.1080...
Fist.of.God.2014.German.720p...
Kong.Skull.Island.2017.COMPL...
Best.of.the.Best.3.No.Turnin...
Superstore.S01-S02.German.DL...
Superstore.S01-S02.German.DL...
Fear.The.Walking.Dead.S03.Ge...
American.Crime.S03.GERMAN.DL...
Best.of.the.Best.3.No.Turnin...
Best.of.the.Best.3.No.Turnin...
American.Crime.S03.GERMAN.72...
Pretty.Little.Liars.S07.Germ...
Preacher.S02.GERMAN.DL.DUBBE...
Preacher.S02.GERMAN.Dubbed.7...
GLOW.S01.COMPLETE.German.DL....
Gotham.S03.GERMAN.DUBBED.DL....
Gotham.S03.GERMAN.DUBBED.DL....
Vampire.Diaries.S08.GERMAN.D...
The.Vampire.Diaries.S08.GERM...
Angie.Tribeca.S03.GERMAN.DUB...
The.Flash.S03.GERMAN.DUBBED....

 
 
Desperado.1995.German.DL.1080p.BluRay.x264-DETAiLS
Jahr: 1995
Genre: Action, Thriller
Sprache: Deutsch DTS | Englisch DTS
Laufzeit: 1h 44mn
Bitrate: 13.4 Mbps
Format: MKV
Größe: 9.76 GiB
Release:

Beschreibung:

Der namenlose Fremde “El Mariachi” (Antonio Banderas) zieht mit einem Gitarrenkoffer, der mit Schusswaffen gefüllt ist, durch Mexiko. Denn er ist immer auf der Suche nach dem Gangsterboss Bucho (Joaquim De Almeida), der für den Tod seiner Geliebten verantwortlich ist. Bucho schickt ihm seinerseits Heerscharen von Killern auf den Hals, die der Held jedoch mit Leichtigkeit in die ewigen Jagdgründe schickt.



General
Unique ID                                : 109829202871123355427172913801447921352 (0x52A055C6588A901E933E10A9CEBCD6C8)
Complete name                            : d-desperado-1080p.mkv
Format                                   : Matroska
Format version                           : Version 2
File size                                : 9.76 GiB
Duration                                 : 1h 44mn
Overall bit rate                         : 13.4 Mbps
Movie name                               : Desperado
Encoded date                             : UTC 2011-04-23 00:15:51
Writing application                      : mkvmerge v4.4.0 ('Die Wiederkehr') gebaut am Oct 31 2010 17:44:29
Writing library                          : libebml v1.0.0 + libmatroska v1.0.0

Video
ID                                       : 1
Format                                   : AVC
Format/Info                              : Advanced Video Codec
Format profile                           : High@L4.1
Format settings, CABAC                   : Yes
Format settings, ReFrames                : 4 frames
Codec ID                                 : V_MPEG4/ISO/AVC
Duration                                 : 1h 44mn
Bit rate                                 : 10.4 Mbps
Width                                    : 1 920 pixels
Height                                   : 1 040 pixels
Display aspect ratio                     : 1.85:1
Frame rate mode                          : Constant
Frame rate                               : 23.976 fps
Color space                              : YUV
Chroma subsampling                       : 4:2:0
Bit depth                                : 8 bits
Scan type                                : Progressive
Bits/(Pixel*Frame)                       : 0.216
Stream size                              : 7.36 GiB (75%)
Title                                    : Desperado
Writing library                          : x264 core 114 r1924 08d04a4
Encoding settings                        : cabac=1 / ref=4 / deblock=1:0:0 / analyse=0x3:0x133 / me=umh / subme=7 / psy=1 / psy_rd=1.00:0.00 / mixed_ref=1 / me_range=16 / chroma_me=1 / trellis=1 / 8x8dct=1 / cqm=0 / deadzone=21,11 / fast_pskip=0 / chroma_qp_offset=-2 / threads=12 / sliced_threads=0 / nr=0 / decimate=1 / interlaced=0 / constrained_intra=0 / bframes=3 / b_pyramid=2 / b_adapt=1 / b_bias=0 / direct=3 / weightb=1 / open_gop=0 / weightp=2 / keyint=250 / keyint_min=23 / scenecut=40 / intra_refresh=0 / rc_lookahead=40 / rc=2pass / mbtree=1 / bitrate=10359 / ratetol=1.0 / qcomp=0.60 / qpmin=0 / qpmax=69 / qpstep=4 / cplxblur=20.0 / qblur=0.5 / ip_ratio=1.40 / aq=1:1.00
Default                                  : Yes
Forced                                   : No

Audio #1
ID                                       : 2
Format                                   : DTS
Format/Info                              : Digital Theater Systems
Mode                                     : 16
Format settings, Endianness              : Big
Codec ID                                 : A_DTS
Duration                                 : 1h 44mn
Bit rate mode                            : Constant
Bit rate                                 : 1 509 Kbps
Channel(s)                               : 6 channels
Channel positions                        : Front: L C R, Side: L R, LFE
Sampling rate                            : 48.0 KHz
Bit depth                                : 24 bits
Compression mode                         : Lossy
Stream size                              : 1.10 GiB (11%)
Title                                    : DTS
Language                                 : German
Default                                  : Yes
Forced                                   : No

Audio #2
ID                                       : 3
Format                                   : DTS
Format/Info                              : Digital Theater Systems
Mode                                     : 16
Format settings, Endianness              : Big
Codec ID                                 : A_DTS
Duration                                 : 1h 44mn
Bit rate mode                            : Constant
Bit rate                                 : 1 509 Kbps
Channel(s)                               : 6 channels
Channel positions                        : Front: L C R, Side: L R, LFE
Sampling rate                            : 48.0 KHz
Bit depth                                : 24 bits
Compression mode                         : Lossy
Stream size                              : 1.10 GiB (11%)
Title                                    : DTS
Language                                 : English
Default                                  : No
Forced                                   : No

Text
ID                                       : 4
Format                                   : UTF-8
Codec ID                                 : S_TEXT/UTF8
Codec ID/Info                            : UTF-8 Plain Text
Title                                    : Forced Subs
Language                                 : German
Default                                  : Yes
Forced                                   : No


Download:
Share Online | Uploaded Share Online | UploadedShare Online | UploadedShare Online | Uploaded
 

Kommentare