SUPPORT HD-AREA

Filmwünsche können bei uns im Forum abgegeben werden

Wir Speichern Nicht




 
 
 
Top Releases
1922.2017.German.DD51.DL.108...
Northpole.Weihnachten.steht....
Gluecklich.geschieden.Mama.g...
28.Soldiers.Die.Panzerschlac...
Life.Of.Pi.2012.MULTi.COMPLE...
X-Men.Apocalypse.2016.COMPLE...
Gluecklich.geschieden.Mama.g...
28.Soldiers.Die.Panzerschlac...
Born.to.Be.Blue.2015.German....
Gluecklich.geschieden.Mama.g...

Cinedubs
Overdrive.German.DL.AC3.720p...
Overdrive.German.DL.AC3.1080...
Jungle.2017.German.AC3.DL.10...
Jungle.2017.German.AC3.DL.72...
Casino.Undercover.2017.Germa...
Casino.Undercover.2017.Germa...
What.Happened.to.Monday.2017...
What.Happened.to.Monday.2017...
Planet.der.Affen.Survival.20...
Planet.der.Affen.Survival.20...

Neuerscheinungen 2016-17
Pettersson.Und.Findus.2.Das....
Penny.Serenade.1941.COMPLETE...
Iron.Man.2008.MULTi.COMPLETE...
The.Dinner.2017.DUAL.COMPLET...
The.Dinner.2017.German.DL.10...
Pettersson.Und.Findus.2.Das....
Northpole.Weihnachten.geoeff...
Northpole.Weihnachten.geoeff...
Pettersson.Und.Findus.2.Das....
The.Dinner.2017.German.720p....

XXX
AussiePOV.15.03.11.Samm.Rose...
ATKGirlfriends.17.10.14.Demi...
WildOnCam.17.10.16.Aubrey.Bl...
Cindy.Behrs.Photogirls.XXX.1...
BumsBus.17.10.12.Barra.Brass...
VintageFlash.17.10.13.Ella.D...
WhippedAss.17.10.12.Juliette...
CherryPimps.17.10.16.Darcie....
BeginnersLuck.17.09.19.Zoe.C...
Watch4Beauty.17.10.12.Kendra...
WowGirls.17.10.13.Nekane.Rea...
BurningAngel.17.10.14.Arya.F...
Cosmid.17.10.14.Albina.Evans...
AussiePOV.15.02.12.Samm.Rose...
AllOver30.17.10.13.Tigger.XX...
VIPissy.17.10.16.Vanessa.Hel...
Cosmid.17.10.07.Bex.XXX.1080...
CuckoldSessions.17.10.15.Nik...
WickedPictures.Tell.Me.Somet...
Best.Of.Internal.Injection.X...

3D
Patagonia.3D.Auf.den.Spuren....
Pirates.of.the.Caribbean.Sal...
Transformers.The.Last.Knight...
Faszination.Island.Das.Parad...
The.Final.Destination.4.3D.2...
The.Warriors.Gate.3D.2016.DU...
Wonder.Woman.3D.2017.MULTI.C...
Tutanchamun.3D.2012.COMPLETE...
Wonder.Woman.3D.HSBS.2017.Ge...
Wonder.Woman.3D.HOU.2017.Ger...
Pirates.of.the.Caribbean.Sal...
Pirates.of.the.Caribbean.Sal...
Die.Mumie.3D.2017.MULTi.COMP...
Wickie.auf.grosser.Fahrt.3D....
Die.Mumie.3D.HSBS.2017.Germa...

Old_Stuff
Chicago.Fire.S04.German.DL.1...
Chicago.Fire.S04.German.DL.7...
Conan.The.Barbarian.2011.Ger...
Conan.The.Barbarian.2011.Ger...
Die.Olsenbande.sieht.rot.197...
Olsenbande.steigt.aufs.Dach....
Malcolm.mittendrin.S05.Germa...
Malcolm.mittendrin.S04.Germa...
Life.of.Pi.2012.German.DTS.D...
Rest.Stop.Dont.Look.Back.UNC...
Koenig.der.Loewen.3D.German....
Schuesse.im.Dreiviertel.Takt...
Airwolf.S02.DUAL.BLURAY.COMP...
Don.2.The.King.is.Back.2011....
Prison.Break.S04.Complete.Ge...

Musik
The.Beatles.Sgt.Peppers.Lone...
The.Prometheus.Dolby.Atmos.E...
R.E.M.OUT.OF.TIME.25th.Anniv...
The.Rolling.Stones.GRRR.BR-A...
Mussorgsky.Bilder.einer.Auss...
Yes.-.The.Yes.Album.Bluray-A...
Carlos.Heredia.Gypsy.Flamenc...
SPES.2014.complete.Bluray.un...
Carlos.Santana.Collection.19...
Pink.Floyd.The.Endless.River...
The.Hyperion.Romantic.Piano....
Putumayo.113.CD.Flac.lossles...

Filme
Der.Dreißigjährige.Krieg.2...
Der.Preis.der.Turnschuhe.201...
Universum.der.Ozeane.2010.Ge...
ZDF.History.Mielkes.Menschen...
Die.unsichtbare.Macht.-.Lobb...
The.Fate.of.the.Furious.2017...
It.Stains.the.Sands.Red.2016...
Die.Nichten.der.Frau.Oberst....
Die.Piratenkoenigin.1951.Ger...
Re.E112.Gekaufte.Braeute.-.B...
Die.neun.Pforten.1999.German...
Die.neue.Prophezeiung.der.Ma...
Die.Nacht.des.Jaegers.1955.G...
Anthony.Joshua.The.Fight.Of....
Rumble.in.the.Bronx.1995.Ger...
Premutos.1997.German.DTS-HD....
Eine.Nacht.bei.McCools.Uncut...
Broken.Horses.2015.German.DL...
Baby.Mama.2008.German.1080p....
Die.Nacht.der.Jaeger.2011.Ge...
Die.Nacht.der.Woelfe.2011.Ge...
Jenseits.der.weissen.Linie.1...
American.Psycho.2000.German....
A.Nannys.Secret.2009.German....

 
 
The.Ranch.S02.COMPLETE.German.DL.DUBBED.720p.WebHD.x264-AIDA
Jahr: 2017
Genre: Komödie
Sprache: Deutsch AC3 | Englisch AC3
Laufzeit: 32min je Folge
Bitrate: 2600 Kbps
Format: MKV
Größe: 800 MB je Folge
Release:

Beschreibung:

In der Multi-Kamera-Serie The Ranch geht es um die Brüder Colt (Ashton Kutcher) und Jimmy (Danny Masterson).

Der ehemalige Footballprofi Colt (Kutcher) kehrt nach 15 Jahre nach Hause zurück um mit seinem Bruder Jamesson „Rooster“ (Masterson) und seinem Vater Beau (Sam Elliott) die Familienranch in Colorado zu führen. Seine Mutter Maggie (Debra Winger) betreibt derweil eine Bar.



General
Complete name                            : The.Ranch.S02E01.German.DL.DUBBED.720p.WebHD.x264-AIDA\The.Ranch.S02E01.German.DUBBED.720p.WebHD.x264-AIDA.mkv
Format                                   : Matroska
Format version                           : Version 4 / Version 2
File size                                : 810 MiB
Duration                                 : 32mn 36s
Overall bit rate                         : 3 473 Kbps
Encoded date                             : UTC 2017-06-16 08:01:33
Writing application                      : mkvmerge v9.7.1 ('Pandemonium') 64bit
Writing library                          : libebml v1.3.4 + libmatroska v1.4.5
DURATION                                 : 00:32:36.544000000
NUMBER_OF_FRAMES                         : 61142
NUMBER_OF_BYTES                          : 93914112
_STATISTICS_WRITING_APP                  : mkvmerge v9.7.1 ('Pandemonium') 64bit
_STATISTICS_WRITING_DATE_UTC             : 2017-06-16 08:01:33
_STATISTICS_TAGS                         : BPS DURATION NUMBER_OF_FRAMES NUMBER_OF_BYTES

Video
ID                                       : 1
Format                                   : AVC
Format/Info                              : Advanced Video Codec
Format profile                           : High@L4.1
Format settings, CABAC                   : Yes
Format settings, ReFrames                : 5 frames
Codec ID                                 : V_MPEG4/ISO/AVC
Duration                                 : 32mn 36s
Bit rate                                 : 2 636 Kbps
Width                                    : 1 280 pixels
Height                                   : 720 pixels
Display aspect ratio                     : 16:9
Frame rate mode                          : Constant
Frame rate                               : 23.976 fps
Color space                              : YUV
Chroma subsampling                       : 4:2:0
Bit depth                                : 8 bits
Scan type                                : Progressive
Bits/(Pixel*Frame)                       : 0.119
Stream size                              : 615 MiB (76%)
Writing library                          : x264 core 150 r2833 df79067
Encoding settings                        : cabac=1 / ref=5 / deblock=1:-3:-3 / analyse=0x3:0x113 / me=umh / subme=8 / psy=1 / psy_rd=1.00:0.15 / mixed_ref=1 / me_range=16 / chroma_me=1 / trellis=2 / 8x8dct=1 / cqm=0 / deadzone=21,11 / fast_pskip=0 / chroma_qp_offset=-2 / threads=12 / lookahead_threads=2 / sliced_threads=0 / nr=0 / decimate=1 / interlaced=0 / bluray_compat=0 / constrained_intra=0 / bframes=3 / b_pyramid=2 / b_adapt=1 / b_bias=0 / direct=3 / weightb=1 / open_gop=0 / weightp=2 / keyint=240 / keyint_min=23 / scenecut=40 / intra_refresh=0 / rc_lookahead=50 / rc=crf / mbtree=1 / crf=18.0 / qcomp=0.60 / qpmin=0 / qpmax=69 / qpstep=4 / ip_ratio=1.40 / aq=3:0.80
Language                                 : German
Default                                  : Yes
Forced                                   : No
DURATION                                 : 00:32:36.079000000
NUMBER_OF_FRAMES                         : 46899
NUMBER_OF_BYTES                          : 661077415
_STATISTICS_WRITING_APP                  : mkvmerge v9.7.1 ('Pandemonium') 64bit
_STATISTICS_WRITING_DATE_UTC             : 2017-06-16 08:01:33
_STATISTICS_TAGS                         : BPS DURATION NUMBER_OF_FRAMES NUMBER_OF_BYTES

Audio #1
ID                                       : 2
Format                                   : AC-3
Format/Info                              : Audio Coding 3
Mode extension                           : CM (complete main)
Format settings, Endianness              : Big
Codec ID                                 : A_AC3
Duration                                 : 32mn 36s
Bit rate mode                            : Constant
Bit rate                                 : 384 Kbps
Channel(s)                               : 6 channels
Channel positions                        : Front: L C R, Side: L R, LFE
Sampling rate                            : 48.0 KHz
Bit depth                                : 16 bits
Compression mode                         : Lossy
Stream size                              : 89.6 MiB (11%)
Language                                 : German
Default                                  : Yes
Forced                                   : No

Audio #2
ID                                       : 3
Format                                   : AC-3
Format/Info                              : Audio Coding 3
Mode extension                           : CM (complete main)
Format settings, Endianness              : Big
Codec ID                                 : A_AC3
Duration                                 : 32mn 36s
Bit rate mode                            : Constant
Bit rate                                 : 384 Kbps
Channel(s)                               : 6 channels
Channel positions                        : Front: L C R, Side: L R, LFE
Sampling rate                            : 48.0 KHz
Bit depth                                : 16 bits
Compression mode                         : Lossy
Stream size                              : 89.6 MiB (11%)
Language                                 : English
Default                                  : No
Forced                                   : No



Download:
Share-Online.biz Share-Online.bizShare-Online.bizShare-Online.biz | Uploaded.net Uploaded.netUploaded.netUploaded.net
 

Kommentare