SUPPORT HD-AREA

Filmwünsche können bei uns im Forum abgegeben werden

Wir Speichern Nicht




 
 
 
Top Releases
Iron.Man.3.2013.MULTi.COMPLE...
Der.junge.Karl.Marx.2017.Ger...
Der.junge.Karl.Marx.2017.Ger...
Der.junge.Karl.Marx.Le.jeune...
1922.2017.German.DD51.DL.108...
Northpole.Weihnachten.steht....
Gluecklich.geschieden.Mama.g...
28.Soldiers.Die.Panzerschlac...
Life.Of.Pi.2012.MULTi.COMPLE...
X-Men.Apocalypse.2016.COMPLE...

Cinedubs
What.Happened.to.Monday.UNCU...
What.Happened.to.Monday.UNCU...
Overdrive.German.DL.AC3.720p...
Overdrive.German.DL.AC3.1080...
Jungle.2017.German.AC3.DL.10...
Jungle.2017.German.AC3.DL.72...
Casino.Undercover.2017.Germa...
Casino.Undercover.2017.Germa...
What.Happened.to.Monday.2017...
What.Happened.to.Monday.2017...

Neuerscheinungen 2016-17
Cult.of.Chucky.UNRATED.2017....
Cult.of.Chucky.UNRATED.2017....
It.Stains.the.Sands.Red.2016...
It.Stains.the.Sands.Red.2016...
Adaline.2015.DUAL.COMPLETE.B...
Bastard.2015.DUAL.COMPLETE.B...
Bastard.2015.German.DL.1080p...
El.Jeremias.2015.COMPLETE.BL...
Leprechaun.Origins.2014.DL.C...
1922.2017.German.720p.WebHD....

XXX
AussiePOV.16.12.08.Aubrey.Bl...
AussiePOV.16.09.12.Charlie.B...
AussiePOV.16.12.22.Daisy.Ada...
KarupsHA.17.10.09.Chloe.Scot...
JessicaRyanXXX.17.10.11.Jess...
DeviantHardcore.17.04.14.Pen...
DeviantHardcore.17.03.20.Ali...
Housewife1On1.17.10.12.India...
DeviantHardcore.17.04.07.Jas...
AussiePOV.16.11.24.Jessie.Le...
ImmoralLive.17.10.12.Nesty.X...
AussiePOV.17.01.19.Summer.Kn...
DeviantHardcore.17.06.23.Gin...
DigitalPlayground.17.10.14.C...
InTheCrack.E1335.Lucy.Doll.X...
AussiePOV.17.02.02.Monte.Lux...
ErotiqueTVLive.17.04.21.Sara...
JulesJordan.17.10.15.Lauren....
DeviantHardcore.17.03.24.Kat...
DeviantHardcore.17.04.21.Ver...

3D
Fuerst.der.Finsternis.3D.201...
Fuerst.der.Finsternis.3D.201...
Patagonia.3D.Auf.den.Spuren....
Pirates.of.the.Caribbean.Sal...
Transformers.The.Last.Knight...
Faszination.Island.Das.Parad...
The.Final.Destination.4.3D.2...
The.Warriors.Gate.3D.2016.DU...
Wonder.Woman.3D.2017.MULTI.C...
Tutanchamun.3D.2012.COMPLETE...
Wonder.Woman.3D.HSBS.2017.Ge...
Wonder.Woman.3D.HOU.2017.Ger...
Pirates.of.the.Caribbean.Sal...
Pirates.of.the.Caribbean.Sal...
Die.Mumie.3D.2017.MULTi.COMP...

Old_Stuff
Dr.House.S01.German.720p.Blu...
Final.Call.-.Wenn.er.auflegt...
Chicago.Fire.S04.German.DL.1...
Chicago.Fire.S04.German.DL.7...
Conan.The.Barbarian.2011.Ger...
Conan.The.Barbarian.2011.Ger...
Die.Olsenbande.sieht.rot.197...
Olsenbande.steigt.aufs.Dach....
Malcolm.mittendrin.S05.Germa...
Malcolm.mittendrin.S04.Germa...
Life.of.Pi.2012.German.DTS.D...
Rest.Stop.Dont.Look.Back.UNC...
Koenig.der.Loewen.3D.German....
Schuesse.im.Dreiviertel.Takt...
Airwolf.S02.DUAL.BLURAY.COMP...

Musik
The.Beatles.Sgt.Peppers.Lone...
The.Prometheus.Dolby.Atmos.E...
R.E.M.OUT.OF.TIME.25th.Anniv...
The.Rolling.Stones.GRRR.BR-A...
Mussorgsky.Bilder.einer.Auss...
Yes.-.The.Yes.Album.Bluray-A...
Carlos.Heredia.Gypsy.Flamenc...
SPES.2014.complete.Bluray.un...
Carlos.Santana.Collection.19...
Pink.Floyd.The.Endless.River...
The.Hyperion.Romantic.Piano....
Putumayo.113.CD.Flac.lossles...

Filme
Apollo.18.2011.German.DL.108...
Glimmer.Man.1996.German.DD5....
Der.stille.Don.2006.German.D...
Countdown.Copenhagen.S01D01....
Homer.und.Eddie.1989.German....
Once.Upon.a.Time.S06.German....
MotoGP.Moto2.Moto3.Saison.20...
It.Stains.the.Sands.Red.2016...
It.Stains.the.Sands.Red.2016...
Colony.S01.German.HDTV.1080p...
Marvels.Agents.of.S.H.I.E.L....
Marvels.Agents.of.S.H.I.E.L....
Killjoys.S03.German.DD51.Dub...
Killjoys.S03.GERMAN.720p.HDT...
NCIS.S14.GERMAN.DUBBED.DL.72...
Good.Behavior.S02.GERMAN.720...
Dice.S02.GERMAN.720p.HDTV.x2...
iZombie.S03.German.DD51.Dubb...
iZombie.S03.German.DD51.Dubb...
Babylon.Berlin.S01.GERMAN.10...
Babylon.Berlin.S01.GERMAN.72...
Ballers.S03.GERMAN.DUBBED.DL...
Ballers.S03.GERMAN.DUBBED.DL...
Der.Wilde.The.Wild.One.1953....

 
 
Blutiger.Sommer.Camp.des.Grauens.1983.German.AC3D.DL.720p.BluRay.x264-HQOD
Jahr: 1983
Genre: Horror
Sprache: Deutsch AC3 | Englisch DTS
Laufzeit: 1h 24mn
Bitrate: 5 719 Kbps
Format: MKV
Größe: 3.39 GiB
Release:

Beschreibung:

In einem amerikanischen Feriencamp muß eine junge Frau erleben, wie ihr Vater und ihr Bruder einen schrecklichen Unfall erleiden. Acht Jahre später kommt sie aus Zufall an den Ort des Grauens zurück, und plötzlich ereignet sich eine Serie von Mor



Unique ID                                : 211996260627516515753418418496209376896 (0x9F7CFEA0FE546A25AB5B940BBF075680)
Complete name                            : hqod-blutiger.sommer.camp.des.grauens.720p.mkv
Format                                   : Matroska
Format version                           : Version 4 / Version 2
File size                                : 3.39 GiB
Duration                                 : 1h 24mn
Overall bit rate                         : 5 719 Kbps
Movie name                               : BLUTIGER SOMMER - CAMP DES GRAUENS 1983 - GERMAN DL 720P - HQOD
Encoded date                             : UTC 2017-06-05 06:36:56
Writing application                      : mkvmerge v7.0.0 ('Where We Going') 32bit built on Jun  9 2014 15:08:34
Writing library                          : libebml v1.3.0 + libmatroska v1.4.1
DURATION                                 : 01:24:51.456000000
NUMBER_OF_FRAMES                         : 159108
NUMBER_OF_BYTES                          : 122194944
_STATISTICS_WRITING_APP                  : mkvmerge v7.0.0 ('Where We Going') 32bit built on Jun  9 2014 15:08:34
_STATISTICS_WRITING_DATE_UTC             : 2017-06-05 06:36:56
_STATISTICS_TAGS                         : BPS DURATION NUMBER_OF_FRAMES NUMBER_OF_BYTES

Video
ID                                       : 1
Format                                   : AVC
Format/Info                              : Advanced Video Codec
Format profile                           : High@L4.1
Format settings, CABAC                   : Yes
Format settings, ReFrames                : 5 frames
Codec ID                                 : V_MPEG4/ISO/AVC
Duration                                 : 1h 24mn
Bit rate                                 : 4 018 Kbps
Width                                    : 1 280 pixels
Height                                   : 720 pixels
Display aspect ratio                     : 16:9
Frame rate mode                          : Constant
Frame rate                               : 23.976 fps
Color space                              : YUV
Chroma subsampling                       : 4:2:0
Bit depth                                : 8 bits
Scan type                                : Progressive
Bits/(Pixel*Frame)                       : 0.182
Stream size                              : 2.31 GiB (68%)
Title                                    : BLUTIGER SOMMER - CAMP DES GRAUENS 1983 - GERMAN DL 720P - HQOD
Writing library                          : x264 core 142 r2409 d6b4e63
Encoding settings                        : cabac=1 / ref=5 / deblock=1:0:0 / analyse=0x3:0x133 / me=umh / subme=8 / psy=1 / psy_rd=1.00:0.00 / mixed_ref=1 / me_range=16 / chroma_me=1 / trellis=1 / 8x8dct=1 / cqm=0 / deadzone=21,11 / fast_pskip=0 / chroma_qp_offset=-2 / threads=12 / lookahead_threads=2 / sliced_threads=0 / nr=0 / decimate=1 / interlaced=0 / bluray_compat=0 / constrained_intra=0 / bframes=3 / b_pyramid=2 / b_adapt=2 / b_bias=0 / direct=3 / weightb=1 / open_gop=0 / weightp=2 / keyint=250 / keyint_min=23 / scenecut=40 / intra_refresh=0 / rc_lookahead=50 / rc=2pass / mbtree=1 / bitrate=4018 / ratetol=1.0 / qcomp=0.60 / qpmin=0 / qpmax=69 / qpstep=4 / cplxblur=20.0 / qblur=0.5 / ip_ratio=1.40 / aq=1:1.00
Default                                  : Yes
Forced                                   : No
DURATION                                 : 01:24:50.044000000
NUMBER_OF_FRAMES                         : 122039
NUMBER_OF_BYTES                          : 2555915997
_STATISTICS_WRITING_APP                  : mkvmerge v7.0.0 ('Where We Going') 32bit built on Jun  9 2014 15:08:34
_STATISTICS_WRITING_DATE_UTC             : 2017-06-05 06:36:56
_STATISTICS_TAGS                         : BPS DURATION NUMBER_OF_FRAMES NUMBER_OF_BYTES

Audio #1
ID                                       : 2
Format                                   : AC-3
Format/Info                              : Audio Coding 3
Mode extension                           : CM (complete main)
Format settings, Endianness              : Big
Codec ID                                 : A_AC3
Duration                                 : 1h 24mn
Bit rate mode                            : Constant
Bit rate                                 : 192 Kbps
Channel(s)                               : 2 channels
Channel positions                        : Front: L R
Sampling rate                            : 48.0 KHz
Bit depth                                : 16 bits
Compression mode                         : Lossy
Stream size                              : 117 MiB (3%)
Title                                    : GER - AC3
Language                                 : German
Default                                  : Yes
Forced                                   : Yes

Audio #2
ID                                       : 3
Format                                   : DTS
Format/Info                              : Digital Theater Systems
Mode                                     : 16
Format settings, Endianness              : Big
Codec ID                                 : A_DTS
Duration                                 : 1h 24mn
Bit rate mode                            : Constant
Bit rate                                 : 1 509 Kbps
Channel(s)                               : 2 channels
Channel positions                        : Front: L R
Sampling rate                            : 48.0 KHz
Bit depth                                : 24 bits
Compression mode                         : Lossy
Stream size                              : 916 MiB (26%)
Title                                    : ENG - DTS
Language                                 : English
Default                                  : No
Forced                                   : No


Download:
Share Online | Uploaded Share Online | UploadedShare Online | UploadedShare Online | Uploaded
 

Kommentare