SUPPORT HD-AREA

Filmwünsche können bei uns im Forum abgegeben werden

Wir Speichern Nicht




 
 
 
Top Releases
1922.2017.German.DD51.DL.108...
Northpole.Weihnachten.steht....
Gluecklich.geschieden.Mama.g...
28.Soldiers.Die.Panzerschlac...
Life.Of.Pi.2012.MULTi.COMPLE...
X-Men.Apocalypse.2016.COMPLE...
Gluecklich.geschieden.Mama.g...
28.Soldiers.Die.Panzerschlac...
Born.to.Be.Blue.2015.German....
Gluecklich.geschieden.Mama.g...

Cinedubs
Overdrive.German.DL.AC3.720p...
Overdrive.German.DL.AC3.1080...
Jungle.2017.German.AC3.DL.10...
Jungle.2017.German.AC3.DL.72...
Casino.Undercover.2017.Germa...
Casino.Undercover.2017.Germa...
What.Happened.to.Monday.2017...
What.Happened.to.Monday.2017...
Planet.der.Affen.Survival.20...
Planet.der.Affen.Survival.20...

Neuerscheinungen 2016-17
Pettersson.Und.Findus.2.Das....
Penny.Serenade.1941.COMPLETE...
Iron.Man.2008.MULTi.COMPLETE...
The.Dinner.2017.DUAL.COMPLET...
The.Dinner.2017.German.DL.10...
Pettersson.Und.Findus.2.Das....
Northpole.Weihnachten.geoeff...
Northpole.Weihnachten.geoeff...
Pettersson.Und.Findus.2.Das....
The.Dinner.2017.German.720p....

XXX
Watch4Beauty.17.10.12.Kendra...
WowGirls.17.10.13.Nekane.Rea...
BurningAngel.17.10.14.Arya.F...
Cosmid.17.10.14.Albina.Evans...
AussiePOV.15.02.12.Samm.Rose...
AllOver30.17.10.13.Tigger.XX...
VIPissy.17.10.16.Vanessa.Hel...
Cosmid.17.10.07.Bex.XXX.1080...
CuckoldSessions.17.10.15.Nik...
WickedPictures.Tell.Me.Somet...
Best.Of.Internal.Injection.X...
CherryPimps.17.10.12.Madelyn...
BeginnersLuck.17.09.19.Kayli...
WildOnCam.17.10.12.Piper.Per...
WildOnCam.17.10.13.Monica.As...
BruceAndMorgan.17.09.22.The....
BruceAndMorgan.17.10.06.Fill...
WeLikeToSuck.17.10.12.Diana....
CumEatingCuckOlds.17.09.22.C...
VickiValkyrie.17.07.26.Vicki...

3D
Patagonia.3D.Auf.den.Spuren....
Pirates.of.the.Caribbean.Sal...
Transformers.The.Last.Knight...
Faszination.Island.Das.Parad...
The.Final.Destination.4.3D.2...
The.Warriors.Gate.3D.2016.DU...
Wonder.Woman.3D.2017.MULTI.C...
Tutanchamun.3D.2012.COMPLETE...
Wonder.Woman.3D.HSBS.2017.Ge...
Wonder.Woman.3D.HOU.2017.Ger...
Pirates.of.the.Caribbean.Sal...
Pirates.of.the.Caribbean.Sal...
Die.Mumie.3D.2017.MULTi.COMP...
Wickie.auf.grosser.Fahrt.3D....
Die.Mumie.3D.HSBS.2017.Germa...

Old_Stuff
Chicago.Fire.S04.German.DL.1...
Chicago.Fire.S04.German.DL.7...
Conan.The.Barbarian.2011.Ger...
Conan.The.Barbarian.2011.Ger...
Die.Olsenbande.sieht.rot.197...
Olsenbande.steigt.aufs.Dach....
Malcolm.mittendrin.S05.Germa...
Malcolm.mittendrin.S04.Germa...
Life.of.Pi.2012.German.DTS.D...
Rest.Stop.Dont.Look.Back.UNC...
Koenig.der.Loewen.3D.German....
Schuesse.im.Dreiviertel.Takt...
Airwolf.S02.DUAL.BLURAY.COMP...
Don.2.The.King.is.Back.2011....
Prison.Break.S04.Complete.Ge...

Musik
The.Beatles.Sgt.Peppers.Lone...
The.Prometheus.Dolby.Atmos.E...
R.E.M.OUT.OF.TIME.25th.Anniv...
The.Rolling.Stones.GRRR.BR-A...
Mussorgsky.Bilder.einer.Auss...
Yes.-.The.Yes.Album.Bluray-A...
Carlos.Heredia.Gypsy.Flamenc...
SPES.2014.complete.Bluray.un...
Carlos.Santana.Collection.19...
Pink.Floyd.The.Endless.River...
The.Hyperion.Romantic.Piano....
Putumayo.113.CD.Flac.lossles...

Filme
Der.Dreißigjährige.Krieg.2...
Der.Preis.der.Turnschuhe.201...
Universum.der.Ozeane.2010.Ge...
ZDF.History.Mielkes.Menschen...
Die.unsichtbare.Macht.-.Lobb...
The.Fate.of.the.Furious.2017...
It.Stains.the.Sands.Red.2016...
Die.Nichten.der.Frau.Oberst....
Die.Piratenkoenigin.1951.Ger...
Re.E112.Gekaufte.Braeute.-.B...
Die.neun.Pforten.1999.German...
Die.neue.Prophezeiung.der.Ma...
Die.Nacht.des.Jaegers.1955.G...
Anthony.Joshua.The.Fight.Of....
Rumble.in.the.Bronx.1995.Ger...
Premutos.1997.German.DTS-HD....
Eine.Nacht.bei.McCools.Uncut...
Broken.Horses.2015.German.DL...
Baby.Mama.2008.German.1080p....
Die.Nacht.der.Jaeger.2011.Ge...
Die.Nacht.der.Woelfe.2011.Ge...
Jenseits.der.weissen.Linie.1...
American.Psycho.2000.German....
A.Nannys.Secret.2009.German....

 
 
Der.schwarze.Nazi.2016.German.1080p.Bluray.x264-w0rm
Jahr: 2016
Genre: Komödie
Sprache: Deutsch AC3
Laufzeit: 1h 30mn
Bitrate: 5 718 Kbps
Format: MKV
Größe: 3.61 GiB
Release:

Beschreibung:

Der Kongolese Sikumoya lebt schon seit einigen Jahren in Deutschland. Um weiter im Land bleiben zu dürfen, muss der einstige Flüchtling nun die deutsche Staatsbürgerschaft erwerben. Der Goethe- und Schiller-Fan tut alles, um sich an die hiesige Kultur anzupassen, doch die Anstrengungen überfordern ihn. Er muss ins Krankenhaus und fällt ins Koma. Als er erwacht, ist er der “perfekte Deutsche” und befindet sich bald weiter rechts im politischen Spektrum als seine neuen Neonazi-Kameraden.



General
Unique ID                                : 215335888144614123404892057058248749060 (0xA2002EFA5F90291FA151AC07D2FBF004)
Complete name                            : w0rm-schwarzernazi1080p.mkv
Format                                   : Matroska
Format version                           : Version 2
File size                                : 3.61 GiB
Duration                                 : 1h 30mn
Overall bit rate                         : 5 718 Kbps
Encoded date                             : UTC 2017-06-18 10:35:53
Writing application                      : mkvmerge v4.0.0 ('The Stars were mine') gebaut am Jun  6 2010 16:18:42
Writing library                          : libebml v1.0.0 + libmatroska v1.0.0

Video
ID                                       : 1
Format                                   : AVC
Format/Info                              : Advanced Video Codec
Format profile                           : High@L4.1
Format settings, CABAC                   : Yes
Format settings, ReFrames                : 5 frames
Codec ID                                 : V_MPEG4/ISO/AVC
Duration                                 : 1h 30mn
Bit rate                                 : 5 413 Kbps
Width                                    : 1 920 pixels
Height                                   : 800 pixels
Display aspect ratio                     : 2.40:1
Frame rate mode                          : Constant
Frame rate                               : 25.000 fps
Color space                              : YUV
Chroma subsampling                       : 4:2:0
Bit depth                                : 8 bits
Scan type                                : Progressive
Bits/(Pixel*Frame)                       : 0.141
Stream size                              : 3.42 GiB (95%)
Writing library                          : x264 core 150 r2833 df79067
Encoding settings                        : cabac=1 / ref=5 / deblock=1:-2:-2 / analyse=0x3:0x113 / me=umh / subme=7 / psy=1 / psy_rd=1.00:0.00 / mixed_ref=1 / me_range=16 / chroma_me=1 / trellis=1 / 8x8dct=1 / cqm=0 / deadzone=21,11 / fast_pskip=0 / chroma_qp_offset=-2 / threads=3 / lookahead_threads=1 / sliced_threads=0 / nr=0 / decimate=1 / interlaced=0 / bluray_compat=0 / constrained_intra=0 / bframes=3 / b_pyramid=2 / b_adapt=1 / b_bias=0 / direct=1 / weightb=1 / open_gop=0 / weightp=2 / keyint=250 / keyint_min=25 / scenecut=40 / intra_refresh=0 / rc_lookahead=40 / rc=crf / mbtree=1 / crf=20.0 / qcomp=0.60 / qpmin=0 / qpmax=69 / qpstep=4 / ip_ratio=1.40 / aq=1:1.00
Language                                 : German
Default                                  : No
Forced                                   : No
Matrix coefficients                      : BT.709

Audio
ID                                       : 2
Format                                   : AC-3
Format/Info                              : Audio Coding 3
Mode extension                           : CM (complete main)
Format settings, Endianness              : Big
Codec ID                                 : A_AC3
Duration                                 : 1h 30mn
Bit rate mode                            : Constant
Bit rate                                 : 192 Kbps
Channel(s)                               : 2 channels
Channel positions                        : Front: L R
Sampling rate                            : 48.0 KHz
Bit depth                                : 16 bits
Compression mode                         : Lossy
Stream size                              : 124 MiB (3%)
Title                                    : German
Language                                 : German
Default                                  : Yes
Forced                                   : No


Download:
Share Online | Uploaded Share Online | UploadedShare Online | UploadedShare Online | Uploaded
 

Kommentare