SUPPORT HD-AREA

Filmwünsche können bei uns im Forum abgegeben werden

Wir Speichern Nicht




 
 
 
Top Releases
Iron.Man.3.2013.MULTi.COMPLE...
Der.junge.Karl.Marx.2017.Ger...
Der.junge.Karl.Marx.2017.Ger...
Der.junge.Karl.Marx.Le.jeune...
1922.2017.German.DD51.DL.108...
Northpole.Weihnachten.steht....
Gluecklich.geschieden.Mama.g...
28.Soldiers.Die.Panzerschlac...
Life.Of.Pi.2012.MULTi.COMPLE...
X-Men.Apocalypse.2016.COMPLE...

Cinedubs
What.Happened.to.Monday.UNCU...
What.Happened.to.Monday.UNCU...
Overdrive.German.DL.AC3.720p...
Overdrive.German.DL.AC3.1080...
Jungle.2017.German.AC3.DL.10...
Jungle.2017.German.AC3.DL.72...
Casino.Undercover.2017.Germa...
Casino.Undercover.2017.Germa...
What.Happened.to.Monday.2017...
What.Happened.to.Monday.2017...

Neuerscheinungen 2016-17
Cult.of.Chucky.UNRATED.2017....
Cult.of.Chucky.UNRATED.2017....
It.Stains.the.Sands.Red.2016...
It.Stains.the.Sands.Red.2016...
Adaline.2015.DUAL.COMPLETE.B...
Bastard.2015.DUAL.COMPLETE.B...
Bastard.2015.German.DL.1080p...
El.Jeremias.2015.COMPLETE.BL...
Leprechaun.Origins.2014.DL.C...
1922.2017.German.720p.WebHD....

XXX
AussiePOV.16.12.08.Aubrey.Bl...
AussiePOV.16.09.12.Charlie.B...
AussiePOV.16.12.22.Daisy.Ada...
KarupsHA.17.10.09.Chloe.Scot...
JessicaRyanXXX.17.10.11.Jess...
DeviantHardcore.17.04.14.Pen...
DeviantHardcore.17.03.20.Ali...
Housewife1On1.17.10.12.India...
DeviantHardcore.17.04.07.Jas...
AussiePOV.16.11.24.Jessie.Le...
ImmoralLive.17.10.12.Nesty.X...
AussiePOV.17.01.19.Summer.Kn...
DeviantHardcore.17.06.23.Gin...
DigitalPlayground.17.10.14.C...
InTheCrack.E1335.Lucy.Doll.X...
AussiePOV.17.02.02.Monte.Lux...
ErotiqueTVLive.17.04.21.Sara...
JulesJordan.17.10.15.Lauren....
DeviantHardcore.17.03.24.Kat...
DeviantHardcore.17.04.21.Ver...

3D
Fuerst.der.Finsternis.3D.201...
Fuerst.der.Finsternis.3D.201...
Patagonia.3D.Auf.den.Spuren....
Pirates.of.the.Caribbean.Sal...
Transformers.The.Last.Knight...
Faszination.Island.Das.Parad...
The.Final.Destination.4.3D.2...
The.Warriors.Gate.3D.2016.DU...
Wonder.Woman.3D.2017.MULTI.C...
Tutanchamun.3D.2012.COMPLETE...
Wonder.Woman.3D.HSBS.2017.Ge...
Wonder.Woman.3D.HOU.2017.Ger...
Pirates.of.the.Caribbean.Sal...
Pirates.of.the.Caribbean.Sal...
Die.Mumie.3D.2017.MULTi.COMP...

Old_Stuff
Dr.House.S01.German.720p.Blu...
Final.Call.-.Wenn.er.auflegt...
Chicago.Fire.S04.German.DL.1...
Chicago.Fire.S04.German.DL.7...
Conan.The.Barbarian.2011.Ger...
Conan.The.Barbarian.2011.Ger...
Die.Olsenbande.sieht.rot.197...
Olsenbande.steigt.aufs.Dach....
Malcolm.mittendrin.S05.Germa...
Malcolm.mittendrin.S04.Germa...
Life.of.Pi.2012.German.DTS.D...
Rest.Stop.Dont.Look.Back.UNC...
Koenig.der.Loewen.3D.German....
Schuesse.im.Dreiviertel.Takt...
Airwolf.S02.DUAL.BLURAY.COMP...

Musik
The.Beatles.Sgt.Peppers.Lone...
The.Prometheus.Dolby.Atmos.E...
R.E.M.OUT.OF.TIME.25th.Anniv...
The.Rolling.Stones.GRRR.BR-A...
Mussorgsky.Bilder.einer.Auss...
Yes.-.The.Yes.Album.Bluray-A...
Carlos.Heredia.Gypsy.Flamenc...
SPES.2014.complete.Bluray.un...
Carlos.Santana.Collection.19...
Pink.Floyd.The.Endless.River...
The.Hyperion.Romantic.Piano....
Putumayo.113.CD.Flac.lossles...

Filme
Apollo.18.2011.German.DL.108...
Glimmer.Man.1996.German.DD5....
Der.stille.Don.2006.German.D...
Countdown.Copenhagen.S01D01....
Homer.und.Eddie.1989.German....
Once.Upon.a.Time.S06.German....
MotoGP.Moto2.Moto3.Saison.20...
It.Stains.the.Sands.Red.2016...
It.Stains.the.Sands.Red.2016...
Colony.S01.German.HDTV.1080p...
Marvels.Agents.of.S.H.I.E.L....
Marvels.Agents.of.S.H.I.E.L....
Killjoys.S03.German.DD51.Dub...
Killjoys.S03.GERMAN.720p.HDT...
NCIS.S14.GERMAN.DUBBED.DL.72...
Good.Behavior.S02.GERMAN.720...
Dice.S02.GERMAN.720p.HDTV.x2...
iZombie.S03.German.DD51.Dubb...
iZombie.S03.German.DD51.Dubb...
Babylon.Berlin.S01.GERMAN.10...
Babylon.Berlin.S01.GERMAN.72...
Ballers.S03.GERMAN.DUBBED.DL...
Ballers.S03.GERMAN.DUBBED.DL...
Der.Wilde.The.Wild.One.1953....

 
 
Final.Exam.1981.German.720p.BluRay.x264-WOMBAT
Jahr: 1981
Genre: Horror
Sprache: Deutsch DTS
Laufzeit: 1h 29mn
Bitrate: 5 223 Kbps
Format: MKV
Größe: 3.28 GiB
Release:

Beschreibung:

In einem kleinen College brütet die Abschlußklasse über den Examenaufgaben. Ein schwarzer Bus fährt auf das Schulgelände, ein Mann steigt aus und schleicht durch die leeren Gänge der Schule – in seiner Hand eine lange Stahlklinge…



General
Unique ID                                : 192135617416084165478844876638515995733 (0x908BF95147E2AC22A977179AAB9DA455)
Complete name                            : w-exa-720p.mkv
Format                                   : Matroska
Format version                           : Version 2
File size                                : 3.28 GiB
Duration                                 : 1h 29mn
Overall bit rate                         : 5 223 Kbps
Encoded date                             : UTC 2017-06-18 09:11:03
Writing application                      : mkvmerge v3.3.0 ('Language') gebaut am Mar 24 2010 14:59:24
Writing library                          : libebml v0.8.0 + libmatroska v0.9.0

Video
ID                                       : 1
Format                                   : AVC
Format/Info                              : Advanced Video Codec
Format profile                           : High@L4.1
Format settings, CABAC                   : Yes
Format settings, ReFrames                : 5 frames
Codec ID                                 : V_MPEG4/ISO/AVC
Duration                                 : 1h 29mn
Bit rate                                 : 3 712 Kbps
Width                                    : 1 280 pixels
Height                                   : 720 pixels
Display aspect ratio                     : 16:9
Frame rate mode                          : Constant
Frame rate                               : 23.976 fps
Color space                              : YUV
Chroma subsampling                       : 4:2:0
Bit depth                                : 8 bits
Scan type                                : Progressive
Bits/(Pixel*Frame)                       : 0.168
Stream size                              : 2.27 GiB (69%)
Writing library                          : x264 core 150 r2833 df79067
Encoding settings                        : cabac=1 / ref=5 / deblock=1:0:0 / analyse=0x3:0x113 / me=umh / subme=7 / psy=1 / psy_rd=1.00:0.00 / mixed_ref=1 / me_range=16 / chroma_me=1 / trellis=1 / 8x8dct=1 / cqm=0 / deadzone=21,11 / fast_pskip=0 / chroma_qp_offset=-2 / threads=18 / lookahead_threads=3 / sliced_threads=0 / nr=0 / decimate=1 / interlaced=0 / bluray_compat=0 / constrained_intra=0 / bframes=3 / b_pyramid=2 / b_adapt=1 / b_bias=0 / direct=1 / weightb=1 / open_gop=0 / weightp=2 / keyint=250 / keyint_min=23 / scenecut=40 / intra_refresh=0 / rc_lookahead=40 / rc=2pass / mbtree=1 / bitrate=3712 / ratetol=1.0 / qcomp=0.60 / qpmin=0 / qpmax=69 / qpstep=4 / cplxblur=20.0 / qblur=0.5 / ip_ratio=1.40 / aq=1:1.00
Language                                 : German
Default                                  : No
Forced                                   : No

Audio
ID                                       : 2
Format                                   : DTS
Format/Info                              : Digital Theater Systems
Mode                                     : 16
Format settings, Endianness              : Big
Codec ID                                 : A_DTS
Duration                                 : 1h 29mn
Bit rate mode                            : Constant
Bit rate                                 : 1 509 Kbps
Channel(s)                               : 2 channels
Channel positions                        : Front: L R
Sampling rate                            : 48.0 KHz
Bit depth                                : 16 bits
Compression mode                         : Lossy
Stream size                              : 970 MiB (29%)
Title                                    : German
Language                                 : German
Default                                  : Yes
Forced                                   : No


Download:
Share Online | Uploaded Share Online | UploadedShare Online | UploadedShare Online | Uploaded
 

Kommentare