SUPPORT HD-AREA

Filmwünsche können bei uns im Forum abgegeben werden

Wir Speichern Nicht




 
 
 
Top Releases
1922.2017.German.DD51.DL.108...
Northpole.Weihnachten.steht....
Gluecklich.geschieden.Mama.g...
28.Soldiers.Die.Panzerschlac...
Life.Of.Pi.2012.MULTi.COMPLE...
X-Men.Apocalypse.2016.COMPLE...
Gluecklich.geschieden.Mama.g...
28.Soldiers.Die.Panzerschlac...
Born.to.Be.Blue.2015.German....
Gluecklich.geschieden.Mama.g...

Cinedubs
Overdrive.German.DL.AC3.720p...
Overdrive.German.DL.AC3.1080...
Jungle.2017.German.AC3.DL.10...
Jungle.2017.German.AC3.DL.72...
Casino.Undercover.2017.Germa...
Casino.Undercover.2017.Germa...
What.Happened.to.Monday.2017...
What.Happened.to.Monday.2017...
Planet.der.Affen.Survival.20...
Planet.der.Affen.Survival.20...

Neuerscheinungen 2016-17
Pettersson.Und.Findus.2.Das....
Penny.Serenade.1941.COMPLETE...
Iron.Man.2008.MULTi.COMPLETE...
The.Dinner.2017.DUAL.COMPLET...
The.Dinner.2017.German.DL.10...
Pettersson.Und.Findus.2.Das....
Northpole.Weihnachten.geoeff...
Northpole.Weihnachten.geoeff...
Pettersson.Und.Findus.2.Das....
The.Dinner.2017.German.720p....

XXX
WowGirls.17.10.13.Nekane.Rea...
BurningAngel.17.10.14.Arya.F...
Cosmid.17.10.14.Albina.Evans...
AussiePOV.15.02.12.Samm.Rose...
AllOver30.17.10.13.Tigger.XX...
VIPissy.17.10.16.Vanessa.Hel...
Cosmid.17.10.07.Bex.XXX.1080...
CuckoldSessions.17.10.15.Nik...
WickedPictures.Tell.Me.Somet...
Best.Of.Internal.Injection.X...
CherryPimps.17.10.12.Madelyn...
BeginnersLuck.17.09.19.Kayli...
WildOnCam.17.10.12.Piper.Per...
WildOnCam.17.10.13.Monica.As...
BruceAndMorgan.17.09.22.The....
BruceAndMorgan.17.10.06.Fill...
WeLikeToSuck.17.10.12.Diana....
CumEatingCuckOlds.17.09.22.C...
VickiValkyrie.17.07.26.Vicki...
BigGulpGirls.17.10.10.Eva.My...

3D
Patagonia.3D.Auf.den.Spuren....
Pirates.of.the.Caribbean.Sal...
Transformers.The.Last.Knight...
Faszination.Island.Das.Parad...
The.Final.Destination.4.3D.2...
The.Warriors.Gate.3D.2016.DU...
Wonder.Woman.3D.2017.MULTI.C...
Tutanchamun.3D.2012.COMPLETE...
Wonder.Woman.3D.HSBS.2017.Ge...
Wonder.Woman.3D.HOU.2017.Ger...
Pirates.of.the.Caribbean.Sal...
Pirates.of.the.Caribbean.Sal...
Die.Mumie.3D.2017.MULTi.COMP...
Wickie.auf.grosser.Fahrt.3D....
Die.Mumie.3D.HSBS.2017.Germa...

Old_Stuff
Chicago.Fire.S04.German.DL.1...
Chicago.Fire.S04.German.DL.7...
Conan.The.Barbarian.2011.Ger...
Conan.The.Barbarian.2011.Ger...
Die.Olsenbande.sieht.rot.197...
Olsenbande.steigt.aufs.Dach....
Malcolm.mittendrin.S05.Germa...
Malcolm.mittendrin.S04.Germa...
Life.of.Pi.2012.German.DTS.D...
Rest.Stop.Dont.Look.Back.UNC...
Koenig.der.Loewen.3D.German....
Schuesse.im.Dreiviertel.Takt...
Airwolf.S02.DUAL.BLURAY.COMP...
Don.2.The.King.is.Back.2011....
Prison.Break.S04.Complete.Ge...

Musik
The.Beatles.Sgt.Peppers.Lone...
The.Prometheus.Dolby.Atmos.E...
R.E.M.OUT.OF.TIME.25th.Anniv...
The.Rolling.Stones.GRRR.BR-A...
Mussorgsky.Bilder.einer.Auss...
Yes.-.The.Yes.Album.Bluray-A...
Carlos.Heredia.Gypsy.Flamenc...
SPES.2014.complete.Bluray.un...
Carlos.Santana.Collection.19...
Pink.Floyd.The.Endless.River...
The.Hyperion.Romantic.Piano....
Putumayo.113.CD.Flac.lossles...

Filme
Der.Dreißigjährige.Krieg.2...
Der.Preis.der.Turnschuhe.201...
Universum.der.Ozeane.2010.Ge...
ZDF.History.Mielkes.Menschen...
Die.unsichtbare.Macht.-.Lobb...
The.Fate.of.the.Furious.2017...
It.Stains.the.Sands.Red.2016...
Die.Nichten.der.Frau.Oberst....
Die.Piratenkoenigin.1951.Ger...
Re.E112.Gekaufte.Braeute.-.B...
Die.neun.Pforten.1999.German...
Die.neue.Prophezeiung.der.Ma...
Die.Nacht.des.Jaegers.1955.G...
Anthony.Joshua.The.Fight.Of....
Rumble.in.the.Bronx.1995.Ger...
Premutos.1997.German.DTS-HD....
Eine.Nacht.bei.McCools.Uncut...
Broken.Horses.2015.German.DL...
Baby.Mama.2008.German.1080p....
Die.Nacht.der.Jaeger.2011.Ge...
Die.Nacht.der.Woelfe.2011.Ge...
Jenseits.der.weissen.Linie.1...
American.Psycho.2000.German....
A.Nannys.Secret.2009.German....

 
 
Ghost.in.the.Shell.3D.2017.HOU.German.DL.1080p.BluRay.x264-BluRHD
Jahr: 2017
Genre: Action, Crime, Drama
Sprache: Deutsch AC3 | Englisch AC3
Laufzeit: 1h 46mn
Bitrate: 11.1 Mbps
Format: MKV
Größe: 8.30 GiB
Release:

Beschreibung:

In der nahe Zukunft hat die Menschheit gewaltige technologische Fortschritte gemacht, aber dennoch ist Major (Scarlett Johansson) die erste ihrer Art: Sie wurde nach einem schrecklichen Unfall in einen Cyborg mit übermenschlichen Fähigkeiten verwandelt, eine perfekte Waffe im Kampf gegen gefährliche Kriminelle überall auf der Welt. Und so ist Major auch am besten geeignet, gemeinsam mit ihrer Elite-Einsatztruppe Sektion 9 den skrupellosen Cyber-Terroristen Kuze (Michael Pitt) aufzuhalten, dem es gelungen ist, sich in den Verstand von Menschen zu hacken und diese zu kontrollieren. Doch während der Jagd auf Kuze macht sie eine furchtbare Entdeckung: Die Wissenschaftler, die ihr angeblich das Leben gerettet haben, haben ihr in Wahrheit ihr Leben weggenommen. Fortan begibt sich Major auf die Suche nach den Verantwortlichen, um zu verhindern, dass andere dasselbe Schicksal erleiden müssen, und sie versucht gleichzeitig herauszufinden, wer sie vor ihrem Leben als Cyborg war…

 



Unique ID                                : 252933880985900580158484760355774924577 (0xBE494B250CB3D763A9B1C05805600721)
Complete name                            : bhd-gitshou-1080p.mkv
Format                                   : Matroska
Format version                           : Version 4 / Version 2
File size                                : 8.30 GiB
Duration                                 : 1h 46mn
Overall bit rate                         : 11.1 Mbps
Encoded date                             : UTC 2017-07-23 16:50:14
Writing application                      : mkvmerge v8.8.0 ('Wind at my back') 32bit
Writing library                          : libebml v1.3.3 + libmatroska v1.4.4
DURATION                                 : 01:36:08.043000000
NUMBER_OF_FRAMES                         : 74
NUMBER_OF_BYTES                          : 571697
_STATISTICS_WRITING_APP                  : mkvmerge v8.8.0 ('Wind at my back') 32bit
_STATISTICS_WRITING_DATE_UTC             : 2017-07-23 16:50:14
_STATISTICS_TAGS                         : BPS DURATION NUMBER_OF_FRAMES NUMBER_OF_BYTES

Video
ID                                       : 1
Format                                   : AVC
Format/Info                              : Advanced Video Codec
Format profile                           : High@L4.1
Format settings, CABAC                   : Yes
Format settings, ReFrames                : 3 frames
Codec ID                                 : V_MPEG4/ISO/AVC
Duration                                 : 1h 46mn
Bit rate                                 : 9 831 Kbps
Width                                    : 1 920 pixels
Height                                   : 1 080 pixels
Display aspect ratio                     : 16:9
Frame rate mode                          : Constant
Frame rate                               : 23.976 fps
Color space                              : YUV
Chroma subsampling                       : 4:2:0
Bit depth                                : 8 bits
Scan type                                : Progressive
Bits/(Pixel*Frame)                       : 0.198
Stream size                              : 7.18 GiB (86%)
Writing library                          : x264 core 148 r2744 b97ae06
Encoding settings                        : cabac=1 / ref=4 / deblock=1:-1:-1 / analyse=0x3:0x113 / me=umh / subme=7 / psy=1 / psy_rd=1.00:0.15 / mixed_ref=1 / me_range=16 / chroma_me=1 / trellis=2 / 8x8dct=1 / cqm=0 / deadzone=21,11 / fast_pskip=1 / chroma_qp_offset=-3 / threads=34 / lookahead_threads=5 / sliced_threads=0 / nr=0 / decimate=1 / interlaced=0 / bluray_compat=0 / constrained_intra=0 / bframes=3 / b_pyramid=1 / b_adapt=2 / b_bias=0 / direct=1 / weightb=1 / open_gop=0 / weightp=1 / keyint=240 / keyint_min=23 / scenecut=40 / intra_refresh=0 / rc_lookahead=30 / rc=2pass / mbtree=1 / bitrate=9831 / ratetol=1.0 / qcomp=0.60 / qpmin=0 / qpmax=69 / qpstep=4 / cplxblur=20.0 / qblur=0.5 / ip_ratio=1.40 / aq=1:1.00
Default                                  : Yes
Forced                                   : No

Audio #1
ID                                       : 2
Format                                   : AC-3
Format/Info                              : Audio Coding 3
Mode extension                           : CM (complete main)
Format settings, Endianness              : Big
Codec ID                                 : A_AC3
Duration                                 : 1h 46mn
Bit rate mode                            : Constant
Bit rate                                 : 640 Kbps
Channel(s)                               : 6 channels
Channel positions                        : Front: L C R, Side: L R, LFE
Sampling rate                            : 48.0 KHz
Bit depth                                : 16 bits
Compression mode                         : Lossy
Stream size                              : 490 MiB (6%)
Title                                    : German
Language                                 : German
Default                                  : Yes
Forced                                   : No

Audio #2
ID                                       : 3
Format                                   : AC-3
Format/Info                              : Audio Coding 3
Mode extension                           : CM (complete main)
Format settings, Endianness              : Big
Codec ID                                 : A_AC3
Duration                                 : 1h 46mn
Bit rate mode                            : Constant
Bit rate                                 : 640 Kbps
Channel(s)                               : 6 channels
Channel positions                        : Front: L C R, Side: L R, LFE
Sampling rate                            : 48.0 KHz
Bit depth                                : 16 bits
Compression mode                         : Lossy
Stream size                              : 490 MiB (6%)
Title                                    : English
Language                                 : English
Default                                  : No
Forced                                   : No

Text
ID                                       : 4
Format                                   : VobSub
Muxing mode                              : zlib
Codec ID                                 : S_VOBSUB
Codec ID/Info                            : The same subtitle format used on DVDs
Title                                    : German forced
Language                                 : German
Default                                  : Yes
Forced                                   : Yes


Download:
Share Online | Rapidgator.net Share Online | Rapidgator.netShare Online | Rapidgator.netShare Online | Rapidgator.net
 

Kommentare

  1. Geschrieben am 29. July 2017, 21:43 Uhr von DerTester · #

    Englische Tonspur ist die für Blinde, deutsche ist ok.
    Bitte Proper-Version mit normaler Englischer Tonspur!