Wir sind wenn hd-area.org mal ausfällt unter hd-area.biz erreichbar


Hier klickenfür Informationen zur Umgehung staatlicher Zensurmaßnahmen




Filmwünsche können bei uns im Forum abgegeben werden

Wir Speichern Nicht




 
 
 
Top Releases
Die.rote.Schildkroete.2016.B...
Volt.2016.German.COMPLETE.BL...
Chips.Chip.Happens.2017.DUAL...
A.United.Kingdom.2016.MULTI....
El.Bar.Fruehstueck.mit.Leich...
Chips.Chip.Happens.2017.Germ...
Chips.Chip.Happens.2017.Germ...
Chips.Chip.Happens.2017.Germ...
Black.Butterfly.Der.Moerder....
Life.2017.German.Dubbed.DL.2...

Cinedubs
Baywatch.GERMAN.DL.AC3.Dubbe...
Baywatch.GERMAN.DL.AC3.Dubbe...
Alibi.com.2017.German.AC3MD....
Alibi.com.2017.German.AC3MD....
Gesetz.der.Familie.2016.Germ...
Gesetz.der.Familie.2016.Germ...
Die.Mumie.2017.German.AC3.Du...
Die.Mumie.2017.German.AC3.Du...
Alien.Covenant.2017.German.A...
Alien.Covenant.2017.German.A...

Neuerscheinungen 2016-17
Die.Schluempfe.Das.verlorene...
End.Of.A.Gun.MULTi.COMPLETE....
Nacht.und.Nebel.1956.DUAL.CO...
Boys.in.The.Trees.2016.MULTi...
Schatz.nimm.du.sie.GERMAN.10...
Fist.Fight.2017.German.DL.10...
Kill.Switch.Two.Worlds.Colli...
Die.Blumen.Von.Gestern.2016....
Verleugnung.2016.German.DL.1...
Kill.Switch.Two.Worlds.Colli...

XXX
TeensLoveHugeCocks.17.08.05....
MissaX.15.06.11.Sicily.Torna...
MomXXX.17.08.09.Kira.Parvati...
AwesomeHandjobs.E18.Best.CFN...
JulesJordan.17.08.07.Jillian...
ALSScan.17.08.05.Charity.Cra...
ATKGirlfriends.17.08.09.Rina...
PsychoHenessy.17.03.28.Desir...
MissaX.15.05.29.Missa.Wife.S...
PsychoHenessy.17.03.07.Roman...
Throated.17.08.08.Daisy.Ston...
AwesomeHandjobs.E28.Sexy.Gir...
PsychoHenessy.17.04.24.Purpl...
PsychoHenessy.17.04.12.Milky...
ThirdMovies.Stepmother.Orgy....
DogHouseDigital.4.On.1.Gang....
EvilAngel.She.Loves.Anal.XXX...
Schoolgirls.And.Teachers.5.S...
MissaX.15.06.22.Mandy.Flores...
AssholeFever.17.08.05.Domini...

3D
Wundervolle.Welt.3D.2015.DOK...
Terre.des.ours.-.Im.Land.der...
King.Arthur.Legend.of.the.Sw...
The.Curse.of.Sleeping.Beauty...
The.Curse.of.Sleeping.Beauty...
King.Arthur.Legend.of.the.Sw...
The.Curse.of.Sleeping.Beauty...
King.Arthur.Legend.of.the.Sw...
King.Arthur.Legend.of.the.Sw...
Die.Schoene.und.das.Biest.3D...
Ghost.in.the.Shell.3D.HSBS.2...
Die.Schoene.und.das.Biest.3D...
Wildlife.South.Africa.3D.Par...
Amerikanische.Zuege.und.Land...
Ghost.in.the.Shell.3D.2017.H...

Old_Stuff
King.of.Queens.S08.DUAL.COMP...
King.of.Queens.S07.DUAL.COMP...
Gods.Army.1.UNCUT.1995.Germa...
Gods.Army.II.Die.Prophezeiun...
Gods.Army.III.Die.Entscheidu...
Gods.Army.IV.Die.Offenbarung...
The.Family.Guy.Star.Wars.Sag...
Tuerkisch.fuer.Anfaenger.S02...
Tuerkisch.fuer.Anfaenger.S01...
Jurassic.Park.1993.German.DT...
Vergessene.Welt.Jurassic.Par...
Lie.With.Me.Liebe.Mich.2005....
Zurueck.zu.Dir.2000.GERMAN.A...
P.O.E.-.Project.of.Evil.UNCU...
Fields.of.the.Dead.3D.2014.D...

Musik
The.Beatles.Sgt.Peppers.Lone...
The.Prometheus.Dolby.Atmos.E...
R.E.M.OUT.OF.TIME.25th.Anniv...
The.Rolling.Stones.GRRR.BR-A...
Mussorgsky.Bilder.einer.Auss...
Yes.-.The.Yes.Album.Bluray-A...
Carlos.Heredia.Gypsy.Flamenc...
SPES.2014.complete.Bluray.un...
Carlos.Santana.Collection.19...
Pink.Floyd.The.Endless.River...
The.Hyperion.Romantic.Piano....
Putumayo.113.CD.Flac.lossles...

Filme
Nazi.Bauwerke.Utopie.und.Gro...
The.Blacklist.S04D01-6.MULTi...
Dracula.1958.Uncut.German.Du...
Ueberleben.-.Alive.1993.Germ...
Marvels.The.Defenders.S01.CO...
The.Beach.Uncut.2000.German....
Marvels.The.Defenders.S01.CO...
Blue.Velvet.1986.German.DL.1...
Fast.N.Loud.Staffel.3.Comple...
Throne.of.Blood.Das.Schloss....
Silicon.Valley.S04.GERMAN.DU...
Silicon.Valley.S04.GERMAN.DU...
Scorpion.S03.GERMAN.DUBBED.D...
Supergirl.S02.COMPLETE.GERMA...
Supergirl.S02.COMPLETE.GERMA...
Arrow.S05.GERMAN.DUBBED.DL.1...
Arrow.S05.GERMAN.DUBBED.DL.7...
Incorporated.S01.German.DL.1...
Incorporated.S01.German.DL.7...
The.Leftovers.S03.German.DL....
The.Leftovers.S03.German.DL....
The.Blacklist.Redemption.S01...
The.Blacklist.Redemption.S01...
Criminal.Minds.S12.GERMAN.DU...

 
 
Ghost.in.the.Shell.3D.HSBS.2017.German.DL.1080p.BluRay.x264-COiNCiDENCE
Jahr: 2017
Genre: Action, Crime, Drama
Sprache: Deutsch AC3 | Englisch AC3
Laufzeit: 1h 46mn
Bitrate: 11.7 Mbps
Format: MKV
Größe: 8.73 GiB
Release:

Beschreibung:

In der nahe Zukunft hat die Menschheit gewaltige technologische Fortschritte gemacht, aber dennoch ist Major (Scarlett Johansson) die erste ihrer Art: Sie wurde nach einem schrecklichen Unfall in einen Cyborg mit übermenschlichen Fähigkeiten verwandelt, eine perfekte Waffe im Kampf gegen gefährliche Kriminelle überall auf der Welt. Und so ist Major auch am besten geeignet, gemeinsam mit ihrer Elite-Einsatztruppe Sektion 9 den skrupellosen Cyber-Terroristen Kuze (Michael Pitt) aufzuhalten, dem es gelungen ist, sich in den Verstand von Menschen zu hacken und diese zu kontrollieren. Doch während der Jagd auf Kuze macht sie eine furchtbare Entdeckung: Die Wissenschaftler, die ihr angeblich das Leben gerettet haben, haben ihr in Wahrheit ihr Leben weggenommen. Fortan begibt sich Major auf die Suche nach den Verantwortlichen, um zu verhindern, dass andere dasselbe Schicksal erleiden müssen, und sie versucht gleichzeitig herauszufinden, wer sie vor ihrem Leben als Cyborg war…

 



General
Unique ID                                : 190592847593939553143548337753518468475 (0x8F62D8E48174C433986EFCCD32E36D7B)
Complete name                            : coincidence-ghostintheshell-3dhsbs.mkv
Format                                   : Matroska
Format version                           : Version 4 / Version 2
File size                                : 8.73 GiB
Duration                                 : 1h 46mn
Overall bit rate                         : 11.7 Mbps
Encoded date                             : UTC 2017-07-27 18:32:15
Writing application                      : mkvmerge v8.3.0 ('Over the Horizon') 64bit
Writing library                          : libebml v1.3.1 + libmatroska v1.4.2
DURATION                                 : 01:36:08.044000000
NUMBER_OF_FRAMES                         : 74
NUMBER_OF_BYTES                          : 408156
_STATISTICS_WRITING_APP                  : mkvmerge v8.3.0 ('Over the Horizon') 64bit
_STATISTICS_WRITING_DATE_UTC             : 2017-07-27 18:32:15
_STATISTICS_TAGS                         : BPS DURATION NUMBER_OF_FRAMES NUMBER_OF_BYTES

Video
ID                                       : 1
Format                                   : AVC
Format/Info                              : Advanced Video Codec
Format profile                           : High@L4.1
MultiView_Count                          : 2
MultiView_Layout                         : Side by Side (left eye first)
Format settings, CABAC                   : Yes
Format settings, ReFrames                : 4 frames
Codec ID                                 : V_MPEG4/ISO/AVC
Duration                                 : 1h 46mn
Bit rate                                 : 10.4 Mbps
Width                                    : 1 920 pixels
Height                                   : 1 040 pixels
Display aspect ratio                     : 1.85:1
Frame rate mode                          : Constant
Frame rate                               : 23.976 fps
Color space                              : YUV
Chroma subsampling                       : 4:2:0
Bit depth                                : 8 bits
Scan type                                : Progressive
Bits/(Pixel*Frame)                       : 0.217
Stream size                              : 7.60 GiB (87%)
Writing library                          : x264 core 152 r2851 ba24899
Encoding settings                        : cabac=1 / ref=4 / deblock=1:-1:-1 / analyse=0x3:0x113 / me=umh / subme=10 / psy=1 / psy_rd=1.00:0.00 / mixed_ref=1 / me_range=16 / chroma_me=1 / trellis=2 / 8x8dct=1 / cqm=0 / deadzone=21,11 / fast_pskip=0 / chroma_qp_offset=-2 / threads=18 / lookahead_threads=1 / sliced_threads=0 / nr=0 / decimate=1 / interlaced=0 / bluray_compat=0 / constrained_intra=0 / bframes=5 / b_pyramid=2 / b_adapt=1 / b_bias=0 / direct=3 / weightb=1 / open_gop=0 / weightp=1 / keyint=250 / keyint_min=23 / scenecut=40 / intra_refresh=0 / rc_lookahead=40 / rc=2pass / mbtree=1 / bitrate=10403 / ratetol=1.0 / qcomp=0.60 / qpmin=0 / qpmax=69 / qpstep=4 / cplxblur=20.0 / qblur=0.5 / ip_ratio=1.40 / aq=1:1.00
Default                                  : Yes
Forced                                   : No
DURATION                                 : 01:46:56.739000000
NUMBER_OF_FRAMES                         : 153848
NUMBER_OF_BYTES                          : 8340582493
_STATISTICS_WRITING_APP                  : mkvmerge v8.3.0 ('Over the Horizon') 64bit
_STATISTICS_WRITING_DATE_UTC             : 2017-07-27 18:32:15
_STATISTICS_TAGS                         : BPS DURATION NUMBER_OF_FRAMES NUMBER_OF_BYTES

Audio #1
ID                                       : 2
Format                                   : AC-3
Format/Info                              : Audio Coding 3
Mode extension                           : CM (complete main)
Format settings, Endianness              : Big
Codec ID                                 : A_AC3
Duration                                 : 1h 46mn
Bit rate mode                            : Constant
Bit rate                                 : 640 Kbps
Channel(s)                               : 6 channels
Channel positions                        : Front: L C R, Side: L R, LFE
Sampling rate                            : 48.0 KHz
Bit depth                                : 16 bits
Compression mode                         : Lossy
Stream size                              : 490 MiB (5%)
Language                                 : German
Default                                  : Yes
Forced                                   : No

Audio #2
ID                                       : 3
Format                                   : AC-3
Format/Info                              : Audio Coding 3
Mode extension                           : CM (complete main)
Format settings, Endianness              : Big
Codec ID                                 : A_AC3
Duration                                 : 1h 46mn
Bit rate mode                            : Constant
Bit rate                                 : 640 Kbps
Channel(s)                               : 6 channels
Channel positions                        : Front: L C R, Side: L R, LFE
Sampling rate                            : 48.0 KHz
Bit depth                                : 16 bits
Compression mode                         : Lossy
Stream size                              : 490 MiB (5%)
Language                                 : English
Default                                  : No
Forced                                   : No

Text
ID                                       : 4
Format                                   : VobSub
Muxing mode                              : zlib
Codec ID                                 : S_VOBSUB
Codec ID/Info                            : The same subtitle format used on DVDs
Title                                    : German-Forced
Language                                 : German
Default                                  : Yes
Forced                                   : Yes


Download:
Share Online | Rapidgator.net Share Online | Rapidgator.netShare Online | Rapidgator.netShare Online | Rapidgator.net
 

Kommentare