Wir sind wenn hd-area.org mal ausfällt unter hd-area.biz erreichbar


Hier klickenfür Informationen zur Umgehung staatlicher Zensurmaßnahmen




Filmwünsche können bei uns im Forum abgegeben werden

Wir Speichern Nicht




 
 
 
Top Releases
Die.rote.Schildkroete.2016.B...
Volt.2016.German.COMPLETE.BL...
Chips.Chip.Happens.2017.DUAL...
A.United.Kingdom.2016.MULTI....
El.Bar.Fruehstueck.mit.Leich...
Chips.Chip.Happens.2017.Germ...
Chips.Chip.Happens.2017.Germ...
Chips.Chip.Happens.2017.Germ...
Black.Butterfly.Der.Moerder....
Life.2017.German.Dubbed.DL.2...

Cinedubs
Baywatch.GERMAN.DL.AC3.Dubbe...
Baywatch.GERMAN.DL.AC3.Dubbe...
Alibi.com.2017.German.AC3MD....
Alibi.com.2017.German.AC3MD....
Gesetz.der.Familie.2016.Germ...
Gesetz.der.Familie.2016.Germ...
Die.Mumie.2017.German.AC3.Du...
Die.Mumie.2017.German.AC3.Du...
Alien.Covenant.2017.German.A...
Alien.Covenant.2017.German.A...

Neuerscheinungen 2016-17
Die.Schluempfe.Das.verlorene...
End.Of.A.Gun.MULTi.COMPLETE....
Nacht.und.Nebel.1956.DUAL.CO...
Boys.in.The.Trees.2016.MULTi...
Schatz.nimm.du.sie.GERMAN.10...
Fist.Fight.2017.German.DL.10...
Kill.Switch.Two.Worlds.Colli...
Die.Blumen.Von.Gestern.2016....
Verleugnung.2016.German.DL.1...
Kill.Switch.Two.Worlds.Colli...

XXX
TeensLoveHugeCocks.17.08.05....
MissaX.15.06.11.Sicily.Torna...
MomXXX.17.08.09.Kira.Parvati...
AwesomeHandjobs.E18.Best.CFN...
JulesJordan.17.08.07.Jillian...
ALSScan.17.08.05.Charity.Cra...
ATKGirlfriends.17.08.09.Rina...
PsychoHenessy.17.03.28.Desir...
MissaX.15.05.29.Missa.Wife.S...
PsychoHenessy.17.03.07.Roman...
Throated.17.08.08.Daisy.Ston...
AwesomeHandjobs.E28.Sexy.Gir...
PsychoHenessy.17.04.24.Purpl...
PsychoHenessy.17.04.12.Milky...
ThirdMovies.Stepmother.Orgy....
DogHouseDigital.4.On.1.Gang....
EvilAngel.She.Loves.Anal.XXX...
Schoolgirls.And.Teachers.5.S...
MissaX.15.06.22.Mandy.Flores...
AssholeFever.17.08.05.Domini...

3D
Wundervolle.Welt.3D.2015.DOK...
Terre.des.ours.-.Im.Land.der...
King.Arthur.Legend.of.the.Sw...
The.Curse.of.Sleeping.Beauty...
The.Curse.of.Sleeping.Beauty...
King.Arthur.Legend.of.the.Sw...
The.Curse.of.Sleeping.Beauty...
King.Arthur.Legend.of.the.Sw...
King.Arthur.Legend.of.the.Sw...
Die.Schoene.und.das.Biest.3D...
Ghost.in.the.Shell.3D.HSBS.2...
Die.Schoene.und.das.Biest.3D...
Wildlife.South.Africa.3D.Par...
Amerikanische.Zuege.und.Land...
Ghost.in.the.Shell.3D.2017.H...

Old_Stuff
King.of.Queens.S08.DUAL.COMP...
King.of.Queens.S07.DUAL.COMP...
Gods.Army.1.UNCUT.1995.Germa...
Gods.Army.II.Die.Prophezeiun...
Gods.Army.III.Die.Entscheidu...
Gods.Army.IV.Die.Offenbarung...
The.Family.Guy.Star.Wars.Sag...
Tuerkisch.fuer.Anfaenger.S02...
Tuerkisch.fuer.Anfaenger.S01...
Jurassic.Park.1993.German.DT...
Vergessene.Welt.Jurassic.Par...
Lie.With.Me.Liebe.Mich.2005....
Zurueck.zu.Dir.2000.GERMAN.A...
P.O.E.-.Project.of.Evil.UNCU...
Fields.of.the.Dead.3D.2014.D...

Musik
The.Beatles.Sgt.Peppers.Lone...
The.Prometheus.Dolby.Atmos.E...
R.E.M.OUT.OF.TIME.25th.Anniv...
The.Rolling.Stones.GRRR.BR-A...
Mussorgsky.Bilder.einer.Auss...
Yes.-.The.Yes.Album.Bluray-A...
Carlos.Heredia.Gypsy.Flamenc...
SPES.2014.complete.Bluray.un...
Carlos.Santana.Collection.19...
Pink.Floyd.The.Endless.River...
The.Hyperion.Romantic.Piano....
Putumayo.113.CD.Flac.lossles...

Filme
Nazi.Bauwerke.Utopie.und.Gro...
The.Blacklist.S04D01-6.MULTi...
Dracula.1958.Uncut.German.Du...
Ueberleben.-.Alive.1993.Germ...
Marvels.The.Defenders.S01.CO...
The.Beach.Uncut.2000.German....
Marvels.The.Defenders.S01.CO...
Blue.Velvet.1986.German.DL.1...
Fast.N.Loud.Staffel.3.Comple...
Throne.of.Blood.Das.Schloss....
Silicon.Valley.S04.GERMAN.DU...
Silicon.Valley.S04.GERMAN.DU...
Scorpion.S03.GERMAN.DUBBED.D...
Supergirl.S02.COMPLETE.GERMA...
Supergirl.S02.COMPLETE.GERMA...
Arrow.S05.GERMAN.DUBBED.DL.1...
Arrow.S05.GERMAN.DUBBED.DL.7...
Incorporated.S01.German.DL.1...
Incorporated.S01.German.DL.7...
The.Leftovers.S03.German.DL....
The.Leftovers.S03.German.DL....
The.Blacklist.Redemption.S01...
The.Blacklist.Redemption.S01...
Criminal.Minds.S12.GERMAN.DU...

 
 
Bahubali.The.Beginning.UNCUT.2015.German.1080p.BluRay.x265-BluRHD
Jahr: 2015
Genre: Action | Abenteuer | Drama
Sprache: Deutsch DTS
Laufzeit: 2h 38mn
Bitrate: 5 728 Kbps
Format: MKV
Größe: 6.33 GiB
Release:

Beschreibung:

Sivudu (Prabhas) wurde als kleines Baby im Fluss ausgesetzt und wuchs dann gut behütet bei einer anderen Familie auf. Aus ihm ist ein junger, starker Mann mit ungeahnten Fähigkeiten geworden. Durch Zufall trifft er eines Tages auf die Amazone Avanthika (T. Bhatia), die sich auf einer Mission befindet. Sie hat es sich zur Aufgabe gemacht die gefangen gehaltene Königin Devasena (A. Shetty) aus dem Königreich Mahishmati zu befreien. Während die Königin eingesperrt ist, hat der brutale Bhallaladeva (R. Daggubati) den Thron eingenommen und versucht mit allen Mitteln an der Macht zu bleiben. Sivudu schließt sich Avanthika an, um die Königin zu befreien. Dabei enthüllt er langsam eine tragische Wahrheit, die sein gesamtes Schicksal verändern wird...



Unique ID                                : 233720416933191982326265201816372622380 (0xAFD4EA3ABA92C40B834C1F0D64C5B42C)
Complete name                            : bhd-balub-1080p.mkv
Format                                   : Matroska
Format version                           : Version 4 / Version 2
File size                                : 6.33 GiB
Duration                                 : 2h 38mn
Overall bit rate                         : 5 728 Kbps
Encoded date                             : UTC 2017-08-04 18:18:36
Writing application                      : mkvmerge v8.8.0 ('Wind at my back') 32bit
Writing library                          : libebml v1.3.3 + libmatroska v1.4.4
DURATION                                 : 02:37:12.378000000
NUMBER_OF_FRAMES                         : 688
NUMBER_OF_BYTES                          : 3452541
_STATISTICS_WRITING_APP                  : mkvmerge v8.8.0 ('Wind at my back') 32bit
_STATISTICS_WRITING_DATE_UTC             : 2017-08-04 18:18:36
_STATISTICS_TAGS                         : BPS DURATION NUMBER_OF_FRAMES NUMBER_OF_BYTES

Video
ID                                       : 1
Format                                   : HEVC
Format/Info                              : High Efficiency Video Coding
Format profile                           : Main@L4.0
Codec ID                                 : V_MPEGH/ISO/HEVC
Duration                                 : 2h 38mn
Bit rate                                 : 4 105 Kbps
Width                                    : 1 920 pixels
Height                                   : 796 pixels
Display aspect ratio                     : 2.40:1
Frame rate mode                          : Constant
Frame rate                               : 23.976 fps
Color space                              : YUV
Chroma subsampling                       : 4:2:0
Bit depth                                : 8 bits
Bits/(Pixel*Frame)                       : 0.112
Stream size                              : 4.54 GiB (72%)
Writing library                          : x265 2.2+2-998d4520d1cf:[Windows][GCC 6.2.0][64 bit] 8bit+10bit+12bit
Encoding settings                        : cpuid=1050111 / frame-threads=3 / numa-pools=16,16 / wpp / no-pmode / no-pme / no-psnr / no-ssim / log-level=2 / input-csp=1 / input-res=1920x796 / interlace=0 / total-frames=227609 / level-idc=0 / high-tier=1 / uhd-bd=0 / ref=4 / no-allow-non-conformance / no-repeat-headers / annexb / no-aud / no-hrd / info / hash=0 / no-temporal-layers / open-gop / min-keyint=23 / keyint=250 / bframes=4 / b-adapt=2 / b-pyramid / bframe-bias=0 / rc-lookahead=25 / lookahead-slices=4 / scenecut=40 / no-intra-refresh / ctu=64 / min-cu-size=8 / rect / no-amp / max-tu-size=32 / tu-inter-depth=1 / tu-intra-depth=1 / limit-tu=0 / rdoq-level=2 / signhide / no-tskip / nr-intra=0 / nr-inter=0 / no-constrained-intra / strong-intra-smoothing / max-merge=3 / limit-refs=3 / limit-modes / me=3 / subme=3 / merange=57 / temporal-mvp / weightp / no-weightb / no-analyze-src-pics / deblock=0:0 / sao / no-sao-non-deblock / rd=4 / no-early-skip / rskip / no-fast-intra / no-tskip-fast / no-cu-lossless / no-b-intra / rdpenalty=0 / psy-rd=2.00 / psy-rdoq=1.00 / no-rd-refine / analysis-mode=0 / no-lossless / cbqpoffs=0 / crqpoffs=0 / rc=crf / crf=19.5 / qcomp=0.60 / qpstep=4 / stats-write=0 / stats-read=0 / ipratio=1.40 / pbratio=1.30 / aq-mode=1 / aq-strength=1.00 / cutree / zone-count=0 / no-strict-cbr / qg-size=32 / no-rc-grain / qpmax=69 / qpmin=0 / sar=1 / overscan=0 / videoformat=5 / range=0 / colorprim=2 / transfer=2 / colormatrix=2 / chromaloc=0 / display-window=0 / max-cll=0,0 / min-luma=0 / max-luma=255 / log2-max-poc-lsb=8 / vui-timing-info / vui-hrd-info / slices=1 / opt-qp-pps / opt-ref-list-length-pps / no-multi-pass-opt-rps / scenecut-bias=0.05
Default                                  : Yes
Forced                                   : No

Audio
ID                                       : 2
Format                                   : DTS
Format/Info                              : Digital Theater Systems
Mode                                     : 16
Format settings, Endianness              : Big
Codec ID                                 : A_DTS
Duration                                 : 2h 38mn
Bit rate mode                            : Constant
Bit rate                                 : 1 509 Kbps
Channel(s)                               : 6 channels
Channel positions                        : Front: L C R, Side: L R, LFE
Sampling rate                            : 48.0 KHz
Bit depth                                : 24 bits
Compression mode                         : Lossy
Stream size                              : 1.67 GiB (26%)
Title                                    : German
Language                                 : German
Default                                  : Yes
Forced                                   : No

Text
ID                                       : 3
Format                                   : VobSub
Muxing mode                              : zlib
Codec ID                                 : S_VOBSUB
Codec ID/Info                            : The same subtitle format used on DVDs
Title                                    : German complete
Language                                 : German
Default                                  : No
Forced                                   : No


Download:
Share Online | Rapidgator.net Share Online | Rapidgator.netShare Online | Rapidgator.netShare Online | Rapidgator.net
 

Kommentare