SUPPORT HD-AREA

Filmwünsche können bei uns im Forum abgegeben werden

Wir Speichern Nicht




 
 
 
Top Releases
Sully.2016.German.Dubbed.Atm...
The.Autopsy.of.Jane.Doe.2016...
The.Autopsy.of.Jane.Doe.2016...
Miles.Ahead.2015.German.1080...
The.Autopsy.of.Jane.Doe.2016...
Dark.Web.Kontrolle.ist.eine....
Born.to.Be.Blue.2015.German....
Dark.Web.Kontrolle.ist.eine....
Ghost.in.the.Shell.The.New.M...
Ghost.in.the.Shell.The.New.M...

Cinedubs
Casino.Undercover.2017.Germa...
Casino.Undercover.2017.Germa...
What.Happened.to.Monday.2017...
What.Happened.to.Monday.2017...
Planet.der.Affen.Survival.20...
Planet.der.Affen.Survival.20...
Cars.3.2017.GERMAN.DL.MD.108...
Cars.3.2017.GERMAN.DL.MD.720...
Atomic.Blonde.German.AC3.Dub...
Atomic.Blonde.German.AC3.Dub...

Neuerscheinungen 2016-17
Maschinenland.Mankind.Down.2...
Maschinenland.Mankind.Down.2...
Maschinenland.Mankind.Down.2...
Mein.neues.bestes.Stueck.Ger...
Mein.neues.bestes.Stueck.Ger...
USS.Indianapolis.Men.of.Cour...
Ueberflieger.German.DL.720p....
Ueberflieger.German.DL.1080p...
Girls.United.Der.grosse.Show...
Girls.United.Der.grosse.Show...

XXX
AussiePOV.17.03.23.Sierra.Kn...
Analized.17.10.16.Sarah.Vand...
BangBus.17.10.11.Sloan.Harpe...
1By-Day.17.10.11.Isabella.Ch...
AllOver30.17.10.11.Sunny.XXX...
AussiePOV.17.04.06.Contessa....
AllInternal.17.10.12.Rebecca...
Analyzed.Teens.XXX.1080p.WEB...
BadDaddyPOV.17.10.13.Alexis....
AussiePOV.17.03.02.Maddison....
Analized.17.10.11.Dahlia.Sky...
BoobDay.17.10.13.Sienna.Day....
BLACKED.17.10.12.Evelin.Ston...
21Naturals.17.10.15.Amirah.A...
Bang.Europe.57.XXX.1080p.WEB...
AllGirlMassage.17.10.16.Bret...
BoundGangBangs.17.10.09.Mari...
BigNaturals.17.10.11.Anya.Iv...
PropertySex.17.10.06.Adriana...
PervsOnPatrol.17.10.06.Vanes...

3D
Patagonia.3D.Auf.den.Spuren....
Pirates.of.the.Caribbean.Sal...
Transformers.The.Last.Knight...
Faszination.Island.Das.Parad...
The.Final.Destination.4.3D.2...
The.Warriors.Gate.3D.2016.DU...
Wonder.Woman.3D.2017.MULTI.C...
Tutanchamun.3D.2012.COMPLETE...
Wonder.Woman.3D.HSBS.2017.Ge...
Wonder.Woman.3D.HOU.2017.Ger...
Pirates.of.the.Caribbean.Sal...
Pirates.of.the.Caribbean.Sal...
Die.Mumie.3D.2017.MULTi.COMP...
Wickie.auf.grosser.Fahrt.3D....
Die.Mumie.3D.HSBS.2017.Germa...

Old_Stuff
Die.Olsenbande.sieht.rot.197...
Olsenbande.steigt.aufs.Dach....
Malcolm.mittendrin.S05.Germa...
Malcolm.mittendrin.S04.Germa...
Life.of.Pi.2012.German.DTS.D...
Rest.Stop.Dont.Look.Back.UNC...
Koenig.der.Loewen.3D.German....
Schuesse.im.Dreiviertel.Takt...
Airwolf.S02.DUAL.BLURAY.COMP...
Don.2.The.King.is.Back.2011....
Prison.Break.S04.Complete.Ge...
Prison.Break.S03.Complete.Ge...
Tuerkisch.fuer.Anfaenger.S03...
Geraubte.Kuesse.1968.DUAL.CO...
Prison.Break.S02.COMPLETE.20...

Musik
The.Beatles.Sgt.Peppers.Lone...
The.Prometheus.Dolby.Atmos.E...
R.E.M.OUT.OF.TIME.25th.Anniv...
The.Rolling.Stones.GRRR.BR-A...
Mussorgsky.Bilder.einer.Auss...
Yes.-.The.Yes.Album.Bluray-A...
Carlos.Heredia.Gypsy.Flamenc...
SPES.2014.complete.Bluray.un...
Carlos.Santana.Collection.19...
Pink.Floyd.The.Endless.River...
The.Hyperion.Romantic.Piano....
Putumayo.113.CD.Flac.lossles...

Filme
Garten.des.Boesen.Garden.of....
Polina.2016.DUAL.COMPLETE.BL...
Alles.Unter.Kontrolle.2016.D...
Pettersson.und.Findus.Kleine...
Die.Farbe.Lila.1985.German.D...
Die.Kroete.1978.German.DL.10...
Der.Superfighter.AKA.Project...
Der.Superfighter.AKA.Project...
Interview.mit.eine.Vampir.19...
Prison.Break.S05.COMPLETE.Ge...
Berlin.Station.S02.German.10...
Berlin.Station.S02.German.72...
The.Quest.Die.Serie.S03.Germ...
The.Quest.Die.Serie.S03.Germ...
The.Deuce.S01.German.DL.DUBB...
The.Deuce.S01.German.DL.DUBB...
Designated.Survivor.S02.Germ...
Designated.Survivor.S02.Germ...
Fear.The.Walking.Dead.S03.CO...
Captain.Underpants.The.First...
2.Broke.Girls.S06.GERMAN.DUB...
2.Broke.Girls.S06.GERMAN.DUB...
Kevin.Can.Wait.S02.German.10...
Kevin.Can.Wait.S02.German.72...

 
 
Ghost.in.the.Shell.2017.German.DTS.DL.1080p.BluRay.x265-UNFIrED
Jahr: 2017
Genre: Action, Crime, Drama
Sprache: Deutsch DTS | Englisch DTS
Laufzeit: 1h 46mn
Bitrate: 5 608 Kbps
Format: MKV
Größe: 4.19 GiB
Release:

Beschreibung:

In der nahe Zukunft hat die Menschheit gewaltige technologische Fortschritte gemacht, aber dennoch ist Major (Scarlett Johansson) die erste ihrer Art: Sie wurde nach einem schrecklichen Unfall in einen Cyborg mit übermenschlichen Fähigkeiten verwandelt, eine perfekte Waffe im Kampf gegen gefährliche Kriminelle überall auf der Welt. Und so ist Major auch am besten geeignet, gemeinsam mit ihrer Elite-Einsatztruppe Sektion 9 den skrupellosen Cyber-Terroristen Kuze (Michael Pitt) aufzuhalten, dem es gelungen ist, sich in den Verstand von Menschen zu hacken und diese zu kontrollieren. Doch während der Jagd auf Kuze macht sie eine furchtbare Entdeckung: Die Wissenschaftler, die ihr angeblich das Leben gerettet haben, haben ihr in Wahrheit ihr Leben weggenommen. Fortan begibt sich Major auf die Suche nach den Verantwortlichen, um zu verhindern, dass andere dasselbe Schicksal erleiden müssen, und sie versucht gleichzeitig herauszufinden, wer sie vor ihrem Leben als Cyborg war…

 



General
Unique ID                                : 235283647685500595669163290487960668475 (0xB101FB74C00B2286A0BFCC13444C893B)
Complete name                            : unfired-shell-x265.mkv
Format                                   : Matroska
Format version                           : Version 4 / Version 2
File size                                : 4.19 GiB
Duration                                 : 1h 46mn
Overall bit rate                         : 5 608 Kbps
Encoded date                             : UTC 2017-08-02 07:26:06
Writing application                      : mkvmerge v9.7.1 ('Pandemonium') 64bit
Writing library                          : libebml v1.3.4 + libmatroska v1.4.5
DURATION                                 : 01:46:56.726000000
NUMBER_OF_FRAMES                         : 601568
NUMBER_OF_BYTES                          : 1210354816
_STATISTICS_WRITING_APP                  : mkvmerge v9.7.1 ('Pandemonium') 64bit
_STATISTICS_WRITING_DATE_UTC             : 2017-08-02 07:26:06
_STATISTICS_TAGS                         : BPS DURATION NUMBER_OF_FRAMES NUMBER_OF_BYTES

Video
ID                                       : 1
Format                                   : HEVC
Format/Info                              : High Efficiency Video Coding
Format profile                           : Main@L4.0
Codec ID                                 : V_MPEGH/ISO/HEVC
Duration                                 : 1h 46mn
Bit rate                                 : 2 478 Kbps
Width                                    : 1 920 pixels
Height                                   : 1 080 pixels
Display aspect ratio                     : 16:9
Frame rate mode                          : Constant
Frame rate                               : 23.976 fps
Color space                              : YUV
Chroma subsampling                       : 4:2:0
Bit depth                                : 8 bits
Bits/(Pixel*Frame)                       : 0.050
Stream size                              : 1.85 GiB (44%)
Writing library                          : x265 2.4+6-fd01abfc7898:[Windows][GCC 6.3.0][64 bit] 8bit+10bit+12bit
Encoding settings                        : cpuid=1050111 / frame-threads=3 / numa-pools=8 / wpp / no-pmode / no-pme / no-psnr / no-ssim / log-level=2 / input-csp=1 / input-res=1920x1080 / interlace=0 / total-frames=153847 / level-idc=0 / high-tier=1 / uhd-bd=0 / ref=4 / no-allow-non-conformance / no-repeat-headers / annexb / no-aud / no-hrd / info / hash=0 / no-temporal-layers / open-gop / min-keyint=23 / keyint=250 / bframes=4 / b-adapt=2 / b-pyramid / bframe-bias=0 / rc-lookahead=25 / lookahead-slices=4 / scenecut=40 / no-intra-refresh / ctu=64 / min-cu-size=8 / rect / no-amp / max-tu-size=32 / tu-inter-depth=1 / tu-intra-depth=1 / limit-tu=0 / rdoq-level=2 / dynamic-rd=0.00 / no-ssim-rd / signhide / no-tskip / nr-intra=0 / nr-inter=0 / no-constrained-intra / strong-intra-smoothing / max-merge=3 / limit-refs=3 / limit-modes / me=3 / subme=3 / merange=57 / temporal-mvp / weightp / no-weightb / no-analyze-src-pics / deblock=0:0 / sao / no-sao-non-deblock / rd=4 / no-early-skip / rskip / no-fast-intra / no-tskip-fast / no-cu-lossless / no-b-intra / rdpenalty=0 / psy-rd=2.00 / psy-rdoq=1.00 / no-rd-refine / analysis-mode=0 / no-lossless / cbqpoffs=0 / crqpoffs=0 / rc=crf / crf=19.5 / qcomp=0.60 / qpstep=4 / stats-write=0 / stats-read=0 / ipratio=1.40 / pbratio=1.30 / aq-mode=1 / aq-strength=1.00 / cutree / zone-count=0 / no-strict-cbr / qg-size=32 / no-rc-grain / qpmax=69 / qpmin=0 / sar=1 / overscan=0 / videoformat=5 / range=0 / colorprim=2 / transfer=2 / colormatrix=2 / chromaloc=0 / display-window=0 / max-cll=0,0 / min-luma=0 / max-luma=255 / log2-max-poc-lsb=8 / vui-timing-info / vui-hrd-info / slices=1 / opt-qp-pps / opt-ref-list-length-pps / no-multi-pass-opt-rps / scenecut-bias=0.05 / no-opt-cu-delta-qp / no-aq-motion / no-hdr / no-hdr-opt / no-dhdr10-opt / refine-level=5 / no-limit-sao
Default                                  : Yes
Forced                                   : No

Audio #1
ID                                       : 2
Format                                   : DTS
Format/Info                              : Digital Theater Systems
Mode                                     : 16
Format settings, Endianness              : Big
Codec ID                                 : A_DTS
Duration                                 : 1h 46mn
Bit rate mode                            : Constant
Bit rate                                 : 1 509 Kbps
Channel(s)                               : 6 channels
Channel positions                        : Front: L C R, Side: L R, LFE
Sampling rate                            : 48.0 KHz
Bit depth                                : 24 bits
Compression mode                         : Lossy
Stream size                              : 1.13 GiB (27%)
Language                                 : German
Default                                  : Yes
Forced                                   : No

Audio #2
ID                                       : 3
Format                                   : DTS
Format/Info                              : Digital Theater Systems
Mode                                     : 16
Format settings, Endianness              : Big
Codec ID                                 : A_DTS
Duration                                 : 1h 46mn
Bit rate mode                            : Constant
Bit rate                                 : 1 509 Kbps
Channel(s)                               : 6 channels
Channel positions                        : Front: L C R, Side: L R, LFE
Sampling rate                            : 48.0 KHz
Bit depth                                : 24 bits
Compression mode                         : Lossy
Stream size                              : 1.13 GiB (27%)
Language                                 : English
Default                                  : No
Forced                                   : No

Text #1
ID                                       : 4
Format                                   : UTF-8
Codec ID                                 : S_TEXT/UTF8
Codec ID/Info                            : UTF-8 Plain Text
Title                                    : forced
Language                                 : German
Default                                  : Yes
Forced                                   : Yes

Text #2
ID                                       : 5
Format                                   : PGS
Muxing mode                              : zlib
Codec ID                                 : S_HDMV/PGS
Codec ID/Info                            : The same subtitle format used on BDs/HD-DVDs
Title                                    : complete
Language                                 : German
Default                                  : No
Forced                                   : No


Download:
Share Online | Rapidgator.net Share Online | Rapidgator.netShare Online | Rapidgator.netShare Online | Rapidgator.net
 

Kommentare