Filmwünsche können bei uns im Forum abgegeben werden

Wir Speichern Nicht




 
 
 
Top Releases
Die.Tribute.von.Panem.Catchi...
The.Accountant.2016.German.D...
X.Men.Zukunft.ist.Vergangenh...
Promised.Land.2012.German.DL...
Oblivion.2013.German.DL.1080...
Monster.Hunt.2015.German.DL....
The.Expendables.3.2014.THEAT...
Ares-Der.letzte.seiner.Art.2...
Ares-Der.letzte.seiner.Art.2...
Thank.You.for.Bombing.2015.G...

Cinedubs
Dunkirk.2017.IMAX.German.AC3...
Dunkirk.2017.IMAX.German.AC3...
Dunkirk.2017.IMAX.German.AC3...
Schneemann.German.DL.AC3.Dub...
ES.2017.German.DL.AC3.Dubbed...
Dunkirk.2017.German.AC3MD.DL...
The.Lego.Ninjago.Movie.2017....
The.Lego.Ninjago.Movie.2017....
Mother.German.DL.AC3.Dubbed....
Mother.German.DL.AC3.Dubbed....

Neuerscheinungen 2016-17
Leatherface.2017.German.720p...
Leatherface.2017.German.DL.1...
Deep.Purple.From.Here.to.inF...
DJ.Bobo.Mystorial.Live.2017....
Maneater.Der.Tod.aus.der.Kae...
Rendel.2017.German.AC3.DL.10...
Geliebte.Schwester.2017.Germ...
Mein.Freund.der.Dino.2017.Ge...
Rico.Oskar.und.der.Diebstahl...
Haunting.at.Foster.Cabin.201...

XXX
PlayboyPlus.17.11.26.Mashup....
QuebecProductions.15.12.04.A...
PlumperPass.17.11.29.Shanice...
PornMegaLoad.17.11.28.Kora.K...
OfficeObsession.17.11.29.Sof...
PornMegaLoad.17.11.26.Tigerr...
PremiumBukkake.17.11.20.Luna...
PremiumBukkake.17.11.22.Luna...
PremiumBukkake.17.11.17.Luna...
Petite.17.11.25.Liv.Revamped...
NuruMassage.17.12.01.Raven.H...
PlumperPass.17.12.01.Kat.Bai...
PixAndVideo.17.12.01.Kiara.N...
PornMegaLoad.17.11.27.Kandi....
PlayboyPlus.17.12.03.Mashup....
PremiumBukkake.17.10.04.Tina...
QuebecProductions.15.11.27.A...
PornFidelity.E718.Anna.Bell....
Nubiles.17.12.03.Roxy.Romero...
OldYoungLesbianLove.17.11.27...

3D
Walhalla.Rising.3D.2009.Germ...
Spider.Man.Homecoming.3D.Ger...
Valerian.Die.Stadt.der.tause...
Valerian.Die.Stadt.der.tause...
Valerian.Die.Stadt.der.tause...
Valerian.Die.Stadt.der.tause...
Warcraft.The.Beginning.3D.HS...
Transformers.The.Last.Knight...
Warcraft.The.Beginning.3D.HO...
Die.Schneekoenigin.3.Feuer.u...
Die.Schneekoenigin.3.Feuer.u...
Terra.X.Dracula.-.Die.wahre....
Abenteuer.Safari.3D.Safari.P...
Die.Schneekoenigin.3.3D.2016...
Spider.Man.Homecoming.3D.201...

Old_Stuff
Hana-bi.Feuerblume.1997.Germ...
Memphis.Belle.1990.German.DL...
Im.Schatten.des.Mondes.Germa...
Tomb.Raider.2001.DUAL.COMPLE...
Tomb.Raider.Die.Wiege.des.Le...
Party.Animals.3.German.AC3.7...
The.Rocky.Horror.Picture.Sho...
Die.Fliege.1986.German.DTS.1...
Mimic.2.2001.German.DD5.1D.D...
The.Tournament.UNCUT.2009.Ge...
Dr.House.S08.German.720p.Blu...
Dr.House.S07.German.720p.Blu...
Dr.House.S06.German.720p.Blu...
Dr.House.S05.German.720p.Blu...
Dr.House.S04.German.720p.Blu...

Musik
Remote.Galaxy.by.Flint.Juven...
Trondheim.Solistene.Souvenir...
The.Beatles.Sgt.Peppers.Lone...
The.Prometheus.Dolby.Atmos.E...
R.E.M.OUT.OF.TIME.25th.Anniv...
The.Rolling.Stones.GRRR.BR-A...
Mussorgsky.Bilder.einer.Auss...
Yes.-.The.Yes.Album.Bluray-A...
Carlos.Heredia.Gypsy.Flamenc...
SPES.2014.complete.Bluray.un...
Carlos.Santana.Collection.19...
Pink.Floyd.The.Endless.River...
The.Hyperion.Romantic.Piano....
Putumayo.113.CD.Flac.lossles...
UFO.Let.It.Roll.Limited.Edit...

Filme
Mimzy.Meine.Freundin.aus.der...
Supernatural.S11.COMPLETE.Ge...
No.Problem.2010.German.1080p...
Land.of.the.Dead.2K.Remaster...
Ray.Donovan.S05.GERMAN.DUBBE...
Ray.Donovan.S05.GERMAN.DUBBE...
No.Saints.For.Sinners.2011.G...
Supernatural.S12.GERMAN.DUBB...
Supernatural.S12.GERMAN.DUBB...
North.and.South.Die.Schlacht...
North.and.South.Die.Schlacht...
A.Single.Man.German.2009.DL....
A.Touch.of.Sin.2013.German.A...
Express.in.die.Hoelle.1985.G...
Family.For.Christmas.2015.Ge...
A.Star.Is.Born.1976.German.D...
A.Christmas.Carol.Die.drei.W...
A.Single.Shot.2013.German.DL...
Hubert.und.Staller.S06D01-4....
The.Keeper.2009.iNTERNAL.MUL...
To.Wong.Foo.Thanks.for.Every...
Express.in.die.Hoelle.1985.G...
Express.in.die.Hoelle.1985.G...
The.Walking.Dead.S08.GERMAN....

 
 
King.Arthur.Legend.of.the.Sword.2017.German.DL.1080p.BluRay.x265-BluRHD
Jahr: 2017
Genre: Action | Abenteuer | Drama
Sprache: Deutsch DTS | Englisch DTS
Laufzeit: 2h 6mn
Bitrate: 8 435 Kbps
Format: MKV
Größe: 7.44 GiB
Release:

Beschreibung:
Arthur (Charlie Hunnam) wuchs in der Londoner Gosse unter Prostituierten auf, die sich um ihn kümmerten. Von seiner königlichen Herkunft ahnt er nichts, bis er eines Tages das magische Schwert Excalibur aus einem Stein zieht – eine Tat, zur der laut Legende nur der rechtmäßige König Englands fähig ist. Durch Visionen wird Arthur klar, dass der Tyrann Vortigern (Jude Law) die Macht an sich riss, nachdem er den rechtmäßigen König Uther Pendragon (Eric Bana) hatte ermorden lassen, seinen eigenen Bruder – und Arthurs Vater. Der Sohn schließt sich der Rebellion gegen Vortigern an, für die auch die geheimnisvolle Magierin Mage (Àstrid Bergès-Frisbey) kämpft. Es geht um die Befreiung der Bevölkerung von ihrem Unterdrücker, aber Arthur hat außerdem ein ganz persönliches Motiv, um Vortigern vom Thron zu stoßen…


General
Unique ID                                : 239320853042737145954884332112468990061 (0xB40B850C501C6DF09A631A01A777586D)
Complete name                            : bhd-katlots-1080px.mkv
Format                                   : Matroska
Format version                           : Version 2
File size                                : 7.44 GiB
Duration                                 : 2h 6mn
Overall bit rate                         : 8 435 Kbps
Encoded date                             : UTC 2017-08-02 03:39:13
Writing application                      : mkvmerge v4.5.0 ('Speed of Light') gebaut am Feb  1 2011 02:10:32
Writing library                          : libebml v1.2.0 + libmatroska v1.1.0
Attachements                             : King.Arthur.Legend.of.the.Sword.2017.REMUX-iFT.rar

Video
ID                                       : 1
Format                                   : HEVC
Format/Info                              : High Efficiency Video Coding
Format profile                           : Main@L4.0
Codec ID                                 : V_MPEGH/ISO/HEVC
Duration                                 : 2h 6mn
Bit rate                                 : 5 249 Kbps
Width                                    : 1 920 pixels
Height                                   : 800 pixels
Display aspect ratio                     : 2.40:1
Frame rate mode                          : Constant
Frame rate                               : 23.976 fps
Color space                              : YUV
Chroma subsampling                       : 4:2:0
Bit depth                                : 8 bits
Bits/(Pixel*Frame)                       : 0.143
Stream size                              : 4.63 GiB (62%)
Writing library                          : x265 2.4+6-fd01abfc7898:[Win][GCC 6.3.0][64 bit][C|Y|B|E|R|S|P|A|C|E] 2.4+6-fd01abfc7898
Encoding settings                        : cpuid=1173503 / frame-threads=3 / numa-pools=8 / wpp / no-pmode / no-pme / no-psnr / no-ssim / log-level=2 / input-csp=1 / input-res=1920x800 / interlace=0 / total-frames=181581 / level-idc=0 / high-tier=1 / uhd-bd=0 / ref=5 / no-allow-non-conformance / no-repeat-headers / annexb / no-aud / no-hrd / info / hash=0 / no-temporal-layers / no-open-gop / min-keyint=23 / keyint=250 / bframes=4 / b-adapt=2 / b-pyramid / bframe-bias=0 / rc-lookahead=20 / lookahead-slices=5 / scenecut=40 / no-intra-refresh / ctu=64 / min-cu-size=8 / no-rect / no-amp / max-tu-size=32 / tu-inter-depth=1 / tu-intra-depth=1 / limit-tu=0 / rdoq-level=0 / dynamic-rd=0.00 / no-ssim-rd / signhide / no-tskip / nr-intra=0 / nr-inter=0 / no-constrained-intra / strong-intra-smoothing / max-merge=2 / limit-refs=3 / no-limit-modes / me=1 / subme=2 / merange=57 / temporal-mvp / weightp / no-weightb / no-analyze-src-pics / deblock=-2:-2 / sao / no-sao-non-deblock / rd=3 / no-early-skip / rskip / no-fast-intra / no-tskip-fast / no-cu-lossless / no-b-intra / rdpenalty=0 / psy-rd=2.00 / psy-rdoq=0.00 / no-rd-refine / analysis-mode=0 / no-lossless / cbqpoffs=0 / crqpoffs=0 / rc=abr / bitrate=5406 / qcomp=0.60 / qpstep=4 / stats-write=0 / stats-read=2 / cplxblur=20.0 / qblur=0.5 / ipratio=1.40 / pbratio=1.30 / aq-mode=1 / aq-strength=1.00 / cutree / zone-count=0 / no-strict-cbr / qg-size=32 / no-rc-grain / qpmax=69 / qpmin=0 / sar=1 / overscan=0 / videoformat=5 / range=0 / colorprim=2 / transfer=2 / colormatrix=2 / chromaloc=0 / display-window=0 / max-cll=0,0 / min-luma=0 / max-luma=255 / log2-max-poc-lsb=8 / vui-timing-info / vui-hrd-info / slices=1 / opt-qp-pps / opt-ref-list-length-pps / no-multi-pass-opt-rps / scenecut-bias=0.05 / no-opt-cu-delta-qp / no-aq-motion / no-hdr / no-hdr-opt / no-dhdr10-opt / refine-level=5 / no-limit-sao
Language                                 : English
Default                                  : Yes
Forced                                   : No

Audio #1
ID                                       : 2
Format                                   : DTS
Format/Info                              : Digital Theater Systems
Mode                                     : 16
Format settings, Endianness              : Big
Codec ID                                 : A_DTS
Duration                                 : 2h 6mn
Bit rate mode                            : Constant
Bit rate                                 : 1 509 Kbps
Channel(s)                               : 6 channels
Channel positions                        : Front: L C R, Side: L R, LFE
Sampling rate                            : 48.0 KHz
Bit depth                                : 24 bits
Compression mode                         : Lossy
Stream size                              : 1.33 GiB (18%)
Title                                    : German
Language                                 : German
Default                                  : Yes
Forced                                   : No

Audio #2
ID                                       : 3
Format                                   : DTS
Format/Info                              : Digital Theater Systems
Mode                                     : 16
Format settings, Endianness              : Big
Codec ID                                 : A_DTS
Duration                                 : 2h 6mn
Bit rate mode                            : Constant
Bit rate                                 : 1 509 Kbps
Channel(s)                               : 6 channels
Channel positions                        : Front: L C R, Side: L R, LFE
Sampling rate                            : 48.0 KHz
Bit depth                                : 24 bits
Compression mode                         : Lossy
Stream size                              : 1.33 GiB (18%)
Title                                    : English
Language                                 : English
Default                                  : No
Forced                                   : No

Text #1
ID                                       : 4
Format                                   : VobSub
Muxing mode                              : zlib
Codec ID                                 : S_VOBSUB
Codec ID/Info                            : The same subtitle format used on DVDs
Title                                    : German forced
Language                                 : German
Default                                  : Yes
Forced                                   : Yes

Text #2
ID                                       : 5
Format                                   : VobSub
Muxing mode                              : zlib
Codec ID                                 : S_VOBSUB
Codec ID/Info                            : The same subtitle format used on DVDs
Title                                    : German complete
Language                                 : German
Default                                  : No
Forced                                   : No

Text #3
ID                                       : 6
Format                                   : VobSub
Muxing mode                              : zlib
Codec ID                                 : S_VOBSUB
Codec ID/Info                            : The same subtitle format used on DVDs
Title                                    : English complete
Language                                 : English
Default                                  : No
Forced                                   : No


Download:
Share Online | Rapidgator.net Share Online | Rapidgator.netShare Online | Rapidgator.netShare Online | Rapidgator.net
 

Kommentare