SUPPORT HD-AREA

Filmwünsche können bei uns im Forum abgegeben werden

Wir Speichern Nicht




 
 
 
Top Releases
1922.2017.German.DD51.DL.108...
Northpole.Weihnachten.steht....
Gluecklich.geschieden.Mama.g...
28.Soldiers.Die.Panzerschlac...
Life.Of.Pi.2012.MULTi.COMPLE...
X-Men.Apocalypse.2016.COMPLE...
Gluecklich.geschieden.Mama.g...
28.Soldiers.Die.Panzerschlac...
Born.to.Be.Blue.2015.German....
Gluecklich.geschieden.Mama.g...

Cinedubs
Overdrive.German.DL.AC3.720p...
Overdrive.German.DL.AC3.1080...
Jungle.2017.German.AC3.DL.10...
Jungle.2017.German.AC3.DL.72...
Casino.Undercover.2017.Germa...
Casino.Undercover.2017.Germa...
What.Happened.to.Monday.2017...
What.Happened.to.Monday.2017...
Planet.der.Affen.Survival.20...
Planet.der.Affen.Survival.20...

Neuerscheinungen 2016-17
Pettersson.Und.Findus.2.Das....
Penny.Serenade.1941.COMPLETE...
Iron.Man.2008.MULTi.COMPLETE...
The.Dinner.2017.DUAL.COMPLET...
The.Dinner.2017.German.DL.10...
Pettersson.Und.Findus.2.Das....
Northpole.Weihnachten.geoeff...
Northpole.Weihnachten.geoeff...
Pettersson.Und.Findus.2.Das....
The.Dinner.2017.German.720p....

XXX
WowGirls.17.10.13.Nekane.Rea...
BurningAngel.17.10.14.Arya.F...
Cosmid.17.10.14.Albina.Evans...
AussiePOV.15.02.12.Samm.Rose...
AllOver30.17.10.13.Tigger.XX...
VIPissy.17.10.16.Vanessa.Hel...
Cosmid.17.10.07.Bex.XXX.1080...
CuckoldSessions.17.10.15.Nik...
WickedPictures.Tell.Me.Somet...
Best.Of.Internal.Injection.X...
CherryPimps.17.10.12.Madelyn...
BeginnersLuck.17.09.19.Kayli...
WildOnCam.17.10.12.Piper.Per...
WildOnCam.17.10.13.Monica.As...
BruceAndMorgan.17.09.22.The....
BruceAndMorgan.17.10.06.Fill...
WeLikeToSuck.17.10.12.Diana....
CumEatingCuckOlds.17.09.22.C...
VickiValkyrie.17.07.26.Vicki...
BigGulpGirls.17.10.10.Eva.My...

3D
Patagonia.3D.Auf.den.Spuren....
Pirates.of.the.Caribbean.Sal...
Transformers.The.Last.Knight...
Faszination.Island.Das.Parad...
The.Final.Destination.4.3D.2...
The.Warriors.Gate.3D.2016.DU...
Wonder.Woman.3D.2017.MULTI.C...
Tutanchamun.3D.2012.COMPLETE...
Wonder.Woman.3D.HSBS.2017.Ge...
Wonder.Woman.3D.HOU.2017.Ger...
Pirates.of.the.Caribbean.Sal...
Pirates.of.the.Caribbean.Sal...
Die.Mumie.3D.2017.MULTi.COMP...
Wickie.auf.grosser.Fahrt.3D....
Die.Mumie.3D.HSBS.2017.Germa...

Old_Stuff
Chicago.Fire.S04.German.DL.1...
Chicago.Fire.S04.German.DL.7...
Conan.The.Barbarian.2011.Ger...
Conan.The.Barbarian.2011.Ger...
Die.Olsenbande.sieht.rot.197...
Olsenbande.steigt.aufs.Dach....
Malcolm.mittendrin.S05.Germa...
Malcolm.mittendrin.S04.Germa...
Life.of.Pi.2012.German.DTS.D...
Rest.Stop.Dont.Look.Back.UNC...
Koenig.der.Loewen.3D.German....
Schuesse.im.Dreiviertel.Takt...
Airwolf.S02.DUAL.BLURAY.COMP...
Don.2.The.King.is.Back.2011....
Prison.Break.S04.Complete.Ge...

Musik
The.Beatles.Sgt.Peppers.Lone...
The.Prometheus.Dolby.Atmos.E...
R.E.M.OUT.OF.TIME.25th.Anniv...
The.Rolling.Stones.GRRR.BR-A...
Mussorgsky.Bilder.einer.Auss...
Yes.-.The.Yes.Album.Bluray-A...
Carlos.Heredia.Gypsy.Flamenc...
SPES.2014.complete.Bluray.un...
Carlos.Santana.Collection.19...
Pink.Floyd.The.Endless.River...
The.Hyperion.Romantic.Piano....
Putumayo.113.CD.Flac.lossles...

Filme
Der.Dreißigjährige.Krieg.2...
Der.Preis.der.Turnschuhe.201...
Universum.der.Ozeane.2010.Ge...
ZDF.History.Mielkes.Menschen...
Die.unsichtbare.Macht.-.Lobb...
The.Fate.of.the.Furious.2017...
It.Stains.the.Sands.Red.2016...
Die.Nichten.der.Frau.Oberst....
Die.Piratenkoenigin.1951.Ger...
Re.E112.Gekaufte.Braeute.-.B...
Die.neun.Pforten.1999.German...
Die.neue.Prophezeiung.der.Ma...
Die.Nacht.des.Jaegers.1955.G...
Anthony.Joshua.The.Fight.Of....
Rumble.in.the.Bronx.1995.Ger...
Premutos.1997.German.DTS-HD....
Eine.Nacht.bei.McCools.Uncut...
Broken.Horses.2015.German.DL...
Baby.Mama.2008.German.1080p....
Die.Nacht.der.Jaeger.2011.Ge...
Die.Nacht.der.Woelfe.2011.Ge...
Jenseits.der.weissen.Linie.1...
American.Psycho.2000.German....
A.Nannys.Secret.2009.German....

 
 
Julchen.und.Jettchen.die.verliebten.Apothekerstoechter.1982.German.1080p.BluRay.x264-iFPD
Jahr: 1982
Genre: Komödie, Erotik
Sprache: Deutsch DTS
Laufzeit: 1h 19mn
Bitrate: 8 692 Kbps
Format: MKV
Größe: 4.84 GiB
Release:

Beschreibung:

In einem Ost-Schweizer Mädchenpensionat erlernen junge Töchter aus besserem Hause, bei Tag, das Rüstzeug fürs Leben und verwandeln sich nachts in kleine Luder, die von Bett zu Bett, von Zimmer zu Zimmer hüpfen und bezüglich des Lehrpersonals vor keiner Schandtat zurück schrecken. In Zürich wohnt eine Frau Wagner, deren erotischer Appetit enorm ist und deren Mann, dem Body-Building verbunden, den ganzen Tag an seinen Muskeln herumwerkelt, so dass er abends erschöpft neben seiner attraktiven Gattin ins Bett sinkt. So erleidet Frau Wagner sexuellen Hunger und versucht auf verschiedenen Wegen, satt zu werden.



Unique ID                                : 250625395910454711302391881364844289393 (0xBC8CB20B075B01588DE45DEA25FB9D71)
Complete name                            : ifpd-julchenjettchen-1080p.mkv
Format                                   : Matroska
Format version                           : Version 4 / Version 2
File size                                : 4.84 GiB
Duration                                 : 1h 19mn
Overall bit rate                         : 8 692 Kbps
Encoded date                             : UTC 2014-08-30 22:29:15
Writing application                      : mkvmerge v7.0.0 ('Where We Going') 64bit built on Jun  9 2014 15:16:27
Writing library                          : libebml v1.3.0 + libmatroska v1.4.1

Video
ID                                       : 1
Format                                   : AVC
Format/Info                              : Advanced Video Codec
Format profile                           : High@L4.1
Format settings, CABAC                   : Yes
Format settings, ReFrames                : 4 frames
Codec ID                                 : V_MPEG4/ISO/AVC
Duration                                 : 1h 19mn
Bit rate                                 : 7 010 Kbps
Width                                    : 1 920 pixels
Height                                   : 1 024 pixels
Display aspect ratio                     : 1.85:1
Frame rate mode                          : Constant
Frame rate                               : 24.000 fps
Color space                              : YUV
Chroma subsampling                       : 4:2:0
Bit depth                                : 8 bits
Scan type                                : Progressive
Bits/(Pixel*Frame)                       : 0.149
Stream size                              : 3.91 GiB (81%)
Title                                    : Julchen und Jettchen, die verliebten Apothekerst?chter (1982)
Writing library                          : x264 core 142 r2453 ea0ca51
Encoding settings                        : cabac=1 / ref=4 / deblock=1:-3:-3 / analyse=0x3:0x113 / me=umh / subme=7 / psy=1 / psy_rd=1.00:0.00 / mixed_ref=1 / me_range=16 / chroma_me=1 / trellis=1 / 8x8dct=1 / cqm=0 / deadzone=21,11 / fast_pskip=0 / chroma_qp_offset=-2 / threads=10 / lookahead_threads=1 / sliced_threads=0 / nr=0 / decimate=1 / interlaced=0 / bluray_compat=0 / constrained_intra=0 / bframes=3 / b_pyramid=2 / b_adapt=1 / b_bias=0 / direct=3 / weightb=1 / open_gop=0 / weightp=2 / keyint=250 / keyint_min=24 / scenecut=40 / intra_refresh=0 / rc_lookahead=40 / rc=crf / mbtree=1 / crf=20.0 / qcomp=0.60 / qpmin=0 / qpmax=69 / qpstep=4 / ip_ratio=1.40 / aq=1:1.00
Default                                  : Yes
Forced                                   : No

Audio
ID                                       : 2
Format                                   : DTS
Format/Info                              : Digital Theater Systems
Mode                                     : 16
Format settings, Endianness              : Big
Codec ID                                 : A_DTS
Duration                                 : 1h 19mn
Bit rate mode                            : Constant
Bit rate                                 : 1 509 Kbps
Channel(s)                               : 6 channels
Channel positions                        : Front: L C R, Side: L R, LFE
Sampling rate                            : 48.0 KHz
Bit depth                                : 24 bits
Compression mode                         : Lossy
Stream size                              : 861 MiB (17%)
Title                                    : German
Language                                 : German
Default                                  : Yes
Forced                                   : No


Download:
Share Online | Rapidgator.net Share Online | Rapidgator.netShare Online | Rapidgator.netShare Online | Rapidgator.net
 

Kommentare