Wir sind wenn hd-area.org mal ausfällt unter hd-area.biz erreichbar


Hier klickenfür Informationen zur Umgehung staatlicher Zensurmaßnahmen




Filmwünsche können bei uns im Forum abgegeben werden

Wir Speichern Nicht




 
 
 
Top Releases
Die.rote.Schildkroete.2016.B...
Volt.2016.German.COMPLETE.BL...
Chips.Chip.Happens.2017.DUAL...
A.United.Kingdom.2016.MULTI....
El.Bar.Fruehstueck.mit.Leich...
Chips.Chip.Happens.2017.Germ...
Chips.Chip.Happens.2017.Germ...
Chips.Chip.Happens.2017.Germ...
Black.Butterfly.Der.Moerder....
Life.2017.German.Dubbed.DL.2...

Cinedubs
Baywatch.GERMAN.DL.AC3.Dubbe...
Baywatch.GERMAN.DL.AC3.Dubbe...
Alibi.com.2017.German.AC3MD....
Alibi.com.2017.German.AC3MD....
Gesetz.der.Familie.2016.Germ...
Gesetz.der.Familie.2016.Germ...
Die.Mumie.2017.German.AC3.Du...
Die.Mumie.2017.German.AC3.Du...
Alien.Covenant.2017.German.A...
Alien.Covenant.2017.German.A...

Neuerscheinungen 2016-17
Die.Schluempfe.Das.verlorene...
End.Of.A.Gun.MULTi.COMPLETE....
Nacht.und.Nebel.1956.DUAL.CO...
Boys.in.The.Trees.2016.MULTi...
Schatz.nimm.du.sie.GERMAN.10...
Fist.Fight.2017.German.DL.10...
Kill.Switch.Two.Worlds.Colli...
Die.Blumen.Von.Gestern.2016....
Verleugnung.2016.German.DL.1...
Kill.Switch.Two.Worlds.Colli...

XXX
TeensLoveHugeCocks.17.08.05....
MissaX.15.06.11.Sicily.Torna...
MomXXX.17.08.09.Kira.Parvati...
AwesomeHandjobs.E18.Best.CFN...
JulesJordan.17.08.07.Jillian...
ALSScan.17.08.05.Charity.Cra...
ATKGirlfriends.17.08.09.Rina...
PsychoHenessy.17.03.28.Desir...
MissaX.15.05.29.Missa.Wife.S...
PsychoHenessy.17.03.07.Roman...
Throated.17.08.08.Daisy.Ston...
AwesomeHandjobs.E28.Sexy.Gir...
PsychoHenessy.17.04.24.Purpl...
PsychoHenessy.17.04.12.Milky...
ThirdMovies.Stepmother.Orgy....
DogHouseDigital.4.On.1.Gang....
EvilAngel.She.Loves.Anal.XXX...
Schoolgirls.And.Teachers.5.S...
MissaX.15.06.22.Mandy.Flores...
AssholeFever.17.08.05.Domini...

3D
Wundervolle.Welt.3D.2015.DOK...
Terre.des.ours.-.Im.Land.der...
King.Arthur.Legend.of.the.Sw...
The.Curse.of.Sleeping.Beauty...
The.Curse.of.Sleeping.Beauty...
King.Arthur.Legend.of.the.Sw...
The.Curse.of.Sleeping.Beauty...
King.Arthur.Legend.of.the.Sw...
King.Arthur.Legend.of.the.Sw...
Die.Schoene.und.das.Biest.3D...
Ghost.in.the.Shell.3D.HSBS.2...
Die.Schoene.und.das.Biest.3D...
Wildlife.South.Africa.3D.Par...
Amerikanische.Zuege.und.Land...
Ghost.in.the.Shell.3D.2017.H...

Old_Stuff
King.of.Queens.S08.DUAL.COMP...
King.of.Queens.S07.DUAL.COMP...
Gods.Army.1.UNCUT.1995.Germa...
Gods.Army.II.Die.Prophezeiun...
Gods.Army.III.Die.Entscheidu...
Gods.Army.IV.Die.Offenbarung...
The.Family.Guy.Star.Wars.Sag...
Tuerkisch.fuer.Anfaenger.S02...
Tuerkisch.fuer.Anfaenger.S01...
Jurassic.Park.1993.German.DT...
Vergessene.Welt.Jurassic.Par...
Lie.With.Me.Liebe.Mich.2005....
Zurueck.zu.Dir.2000.GERMAN.A...
P.O.E.-.Project.of.Evil.UNCU...
Fields.of.the.Dead.3D.2014.D...

Musik
The.Beatles.Sgt.Peppers.Lone...
The.Prometheus.Dolby.Atmos.E...
R.E.M.OUT.OF.TIME.25th.Anniv...
The.Rolling.Stones.GRRR.BR-A...
Mussorgsky.Bilder.einer.Auss...
Yes.-.The.Yes.Album.Bluray-A...
Carlos.Heredia.Gypsy.Flamenc...
SPES.2014.complete.Bluray.un...
Carlos.Santana.Collection.19...
Pink.Floyd.The.Endless.River...
The.Hyperion.Romantic.Piano....
Putumayo.113.CD.Flac.lossles...

Filme
Nazi.Bauwerke.Utopie.und.Gro...
The.Blacklist.S04D01-6.MULTi...
Dracula.1958.Uncut.German.Du...
Ueberleben.-.Alive.1993.Germ...
Marvels.The.Defenders.S01.CO...
The.Beach.Uncut.2000.German....
Marvels.The.Defenders.S01.CO...
Blue.Velvet.1986.German.DL.1...
Fast.N.Loud.Staffel.3.Comple...
Throne.of.Blood.Das.Schloss....
Silicon.Valley.S04.GERMAN.DU...
Silicon.Valley.S04.GERMAN.DU...
Scorpion.S03.GERMAN.DUBBED.D...
Supergirl.S02.COMPLETE.GERMA...
Supergirl.S02.COMPLETE.GERMA...
Arrow.S05.GERMAN.DUBBED.DL.1...
Arrow.S05.GERMAN.DUBBED.DL.7...
Incorporated.S01.German.DL.1...
Incorporated.S01.German.DL.7...
The.Leftovers.S03.German.DL....
The.Leftovers.S03.German.DL....
The.Blacklist.Redemption.S01...
The.Blacklist.Redemption.S01...
Criminal.Minds.S12.GERMAN.DU...

 
 
Source.Code.German.DL.1080p.BluRay.x264.REPACK-RSG
Jahr: 2011
Genre: Mystery | Sci-Fi | Thriller
Sprache: Deutsch DTS | Englisch DTS
Laufzeit: 1h 33mn
Bitrate: 9 466 Kbps
Format: MKV
Größe: 6.16 GiB
Release:

Beschreibung:

Eine Eilmeldung im Fernsehen: Kurz vor Chicago explodierte ein Personenzug – es gab keine Überlebenden. Wenig später erwacht Colter Stevens in genau diesem Zug – im Körper eines anderen Mannes und an der Seite der jungen Christina. Nach und nach begreift der Kampfpilot: Er ist im „Source Code“. Dank dieser Technologie kann Stevens den Körper eines anderen Menschen übernehmen – für acht Minuten vor dessen Tod. Sein Auftrag: Finde die Bombe und schalte den Bombenleger aus. Wieder und wieder durchlebt Stevens die Katastrophe und setzt das Puzzle mit Christinas Hilfe zusammen. Die Zeit drängt, denn ein weiterer, viel größerer Anschlag droht.



Complete name                            : rsg-sourcecoderp-1080p.mkv
Format                                   : Matroska
Format version                           : Version 2
File size                                : 6.16 GiB
Duration                                 : 1h 33mn
Overall bit rate mode                    : Variable
Overall bit rate                         : 9 466 Kbps
Writing application                      : mkvmerge v4.1.1 ('Bouncin' Back') built on Jul  3 2010 22:54:08
Writing library                          : libebml v1.0.0 + libmatroska v1.0

Video
ID                                       : 1
Format                                   : AVC
Format/Info                              : Advanced Video Codec
Format profile                           : High@L4.1
Format settings, CABAC                   : Yes
Format settings, ReFrames                : 4 frames
Codec ID                                 : V_MPEG4/ISO/AVC
Duration                                 : 1h 33mn
Bit rate mode                            : Variable
Bit rate                                 : 7 741 Kbps
Maximum bit rate                         : 40.0 Mbps
Width                                    : 1 920 pixels
Height                                   : 1 040 pixels
Display aspect ratio                     : 1.85:1
Frame rate mode                          : Constant
Frame rate                               : 23.976 fps
Color space                              : YUV
Chroma subsampling                       : 4:2:0
Bit depth                                : 8 bits
Scan type                                : Progressive
Bits/(Pixel*Frame)                       : 0.162
Stream size                              : 5.04 GiB (82%)
Writing library                          : x264 core 118 r2085 8a62835
Encoding settings                        : cabac=1 / ref=4 / deblock=1:0:0 / analyse=0x3:0x133 / me=umh / subme=7 / psy=1 / psy_rd=1.00:0.00 / mixed_ref=1 / me_range=16 / chroma_me=1 / trellis=1 / 8x8dct=1 / cqm=0 / deadzone=21,11 / fast_pskip=0 / chroma_qp_offset=-2 / threads=12 / sliced_threads=0 / nr=0 / decimate=1 / interlaced=0 / bluray_compat=0 / constrained_intra=0 / bframes=3 / b_pyramid=2 / b_adapt=1 / b_bias=0 / direct=3 / weightb=1 / open_gop=0 / weightp=2 / keyint=250 / keyint_min=23 / scenecut=40 / intra_refresh=0 / rc_lookahead=40 / rc=crf / mbtree=1 / crf=20.0 / qcomp=0.60 / qpmin=10 / qpmax=51 / qpstep=4 / ip_ratio=1.40 / aq=1:1.0
Language                                 : English
Default                                  : Yes
Forced                                   : No

Audio #1
ID                                       : 2
Format                                   : DTS
Format/Info                              : Digital Theater Systems
Mode                                     : 16
Format settings, Endianness              : Big
Codec ID                                 : A_DTS
Duration                                 : 1h 33mn
Bit rate mode                            : Constant
Bit rate                                 : 768 Kbps
Channel(s)                               : 6 channels
Channel positions                        : Front: L C R, Side: L R, LFE
Sampling rate                            : 48.0 KHz
Bit depth                                : 16 bits
Compression mode                         : Lossy
Stream size                              : 512 MiB (8%)
Language                                 : German
Default                                  : Yes
Forced                                   : No

Audio #2
ID                                       : 3
Format                                   : DTS
Format/Info                              : Digital Theater Systems
Mode                                     : 16
Format settings, Endianness              : Big
Codec ID                                 : A_DTS
Duration                                 : 1h 33mn
Bit rate mode                            : Constant
Bit rate                                 : 768 Kbps
Channel(s)                               : 6 channels
Channel positions                        : Front: L C R, Side: L R, LFE
Sampling rate                            : 48.0 KHz
Bit depth                                : 16 bits
Compression mode                         : Lossy
Stream size                              : 512 MiB (8%)
Language                                 : English
Default                                  : Yes
Forced                                   : No


Download:
Share Online | Rapidgator.net Share Online | Rapidgator.netShare Online | Rapidgator.netShare Online | Rapidgator.net
 

Kommentare