Wir sind wenn hd-area.org mal ausfällt unter hd-area.biz erreichbar


Hier klickenfür Informationen zur Umgehung staatlicher Zensurmaßnahmen




Filmwünsche können bei uns im Forum abgegeben werden

Wir Speichern Nicht




 
 
 
Top Releases
The.Book.Of.Henry.German.DL....
The.Book.Of.Henry.German.DL....
Jahrhundertfrauen.2016.DUAL....
Silence.2016.MULTi.COMPLETE....
Jahrhundertfrauen.German.720...
Jahrhundertfrauen.German.DL....
Tierische.Evolution.mit.Davi...
Subterranea.2015.DUAL.COMPLE...
Berlin.Syndrom.2017.German.D...
Pirates.of.the.Caribbean.Sal...

Cinedubs
Lommbock.2017.German.AC3.DL....
Lommbock.2017.German.AC3.DL....
Victoria.Maenner.und.andere....
Victoria.Maenner.und.andere....
Una.und.Ray.German.DL.AC3D.1...
Una.und.Ray.German.DL.AC3D.7...
Norman.German.DL.MD.1080p.Bl...
Norman.German.DL.MD.720p.Blu...
Jahrhundertfrauen.German.DL....
Jahrhundertfrauen.German.DL....

Neuerscheinungen 2016-17
Sleepless.2017.MULTi.COMPLET...
Maedelstrip.2017.German.DL.D...
Starship.Troopers.Traitor.of...
Starship.Troopers.Traitor.of...
Ein.Tag.wie.kein.anderer.201...
Ein.Tag.wie.kein.anderer.Ger...
Uncaged.Das.Biest.in.dir.201...
Uncaged.Das.Biest.in.dir.201...
Rush.Hour.Date.Zweisam.im.St...
Rush.Hour.Date.Zweisam.im.St...

XXX
SisLovesMe.17.09.05.Aspen.Ro...
NeighborAffair.17.09.13.Sara...
StraplessDildo.17.09.12.Mia....
NerdPervert.17.08.25.Jasmine...
Swhores.E07.Dirty.Street.Fuc...
Spizoo.17.09.06.Bobbi.Dylan....
PornstarPlatinum.17.09.11.Sa...
SexArt.17.09.06.Dido.A.And.L...
PornstarPlatinum.17.09.04.Al...
TeachMeFisting.17.09.11.Tiff...
StreetBlowJobs.17.09.10.Tiff...
Spizoo.17.09.09.Briana.Banks...
POVLife.17.09.10.Hadley.Visc...
SexArt.17.09.13.Nancy.A.High...
Stunning18.17.09.03.Mary.Kal...
SpyFam.17.09.04.Nina.Skye.XX...
PornMegaLoad.17.09.12.Alix.L...
Swhores.E08.Low-Budget.Sexua...
MistressT.17.07.25.Scent.Fet...
SexuallyBroken.17.09.11.Kat....

3D
Wonder.Woman.3D.2017.MULTI.C...
Tutanchamun.3D.2012.COMPLETE...
Wonder.Woman.3D.HSBS.2017.Ge...
Wonder.Woman.3D.HOU.2017.Ger...
Pirates.of.the.Caribbean.Sal...
Pirates.of.the.Caribbean.Sal...
Die.Mumie.3D.2017.MULTi.COMP...
Wickie.auf.grosser.Fahrt.3D....
Die.Mumie.3D.HSBS.2017.Germa...
Die.Mumie.3D.HOU.2017.German...
Attraction.2017.3D.HSBS.Germ...
Attraction.2017.3D.HOU.Germa...
Attraction.3D.2017.DUAL.COMP...
A.closer.look.presents.Speci...
Attraction.3D.2017.German.10...

Old_Stuff
Life.of.Pi.2012.German.DTS.D...
Rest.Stop.Dont.Look.Back.UNC...
Koenig.der.Loewen.3D.German....
Schuesse.im.Dreiviertel.Takt...
Airwolf.S02.DUAL.BLURAY.COMP...
Don.2.The.King.is.Back.2011....
Prison.Break.S04.Complete.Ge...
Prison.Break.S03.Complete.Ge...
Tuerkisch.fuer.Anfaenger.S03...
Geraubte.Kuesse.1968.DUAL.CO...
Prison.Break.S02.COMPLETE.20...
Planet.der.Affen.Revolution....
Prison.Break.S01.COMPLETE.20...
King.of.Queens.S09.DUAL.COMP...
King.of.Queens.S08.DUAL.COMP...

Musik
The.Beatles.Sgt.Peppers.Lone...
The.Prometheus.Dolby.Atmos.E...
R.E.M.OUT.OF.TIME.25th.Anniv...
The.Rolling.Stones.GRRR.BR-A...
Mussorgsky.Bilder.einer.Auss...
Yes.-.The.Yes.Album.Bluray-A...
Carlos.Heredia.Gypsy.Flamenc...
SPES.2014.complete.Bluray.un...
Carlos.Santana.Collection.19...
Pink.Floyd.The.Endless.River...
The.Hyperion.Romantic.Piano....
Putumayo.113.CD.Flac.lossles...

Filme
The.Expanse.S02.COMPLETE.Ger...
The.Expanse.S02.COMPLETE.Ger...
Fear.The.Walking.Dead.S03.Ge...
Fear.The.Walking.Dead.S03.Ge...
Janky.Promoters.2009.German....
Jail.Bait.Ueberleben.im.Frau...
Tess.und.ihr.Bodyguard.1994....
Star.Trek.Discovery.S01.GERM...
Star.Trek.Discovery.S01.GERM...
Katharina.von.Alexandrien.20...
Dead.Bang.1989.German.AC3D.D...
Die.Schutzengel.-.Les.Anges....
Star.Trek.III.The.Search.for...
Spy.Kids.2001.German.AC3D.DL...
Spy.Kids.2001.German.AC3D.DL...
X-Tro.Nicht.alle.Ausserirdis...
Once.Upon.a.Time.S06.German....
Public.Enemy.S01D01+2.DUAL.C...
Klass.2007.German.AC3D.DL.10...
Klass.2007.German.AC3D.720p....
Fantasia.1940.German.DL.1080...
Wonder.Woman.2017.German.DTS...
Wonder.Woman.2017.German.DTS...
Und.dennoch.leben.sie.1960.G...

 
 
Baywatch.GERMAN.DL.AC3.Dubbed.1080p.WebHD.h264-PsO
Jahr: 2017
Genre: Komödie, Action
Sprache: Deutsch AC3 | Englisch AC3
Laufzeit: 1h 56mn
Bitrate: 5 132 Kbps
Format: MKV
Größe: 4.18 GiB
Release:

Beschreibung:

Mitch Buchannon (Dwayne Johnson) hat als charismatischer Anführer eines Teams von Rettungsschwimmern alle Hände voll zu tun. Vor allem ein Neuzugang bereitet ihm Sorgen: Matt Brody (Zac Efron) war einst olympischer Schwimmer, doch wurde nach einem Aufsehen erregenden Zwischenfall verbannt. Nun muss Mitch ihn als PR-Maßnahme in sein Team aufnehmen, obwohl er den aufrührerischen Jungspund überhaupt nicht leiden kann. Summer (Alexandra Daddario) hingegen ist recht angetan von dem Neuankömmling - und das nicht nur rein beruflich. Und auch die Kollegen Stephanie (Ilfenesh Hadera), Ronnie (Jon Bass) und C.J. (Kelly Rohrbach) kämpfen nicht nur mit den Wellen, sondern auch mit privaten Problemen und der ein oder anderen Liebelei. All das muss aber bald beiseite gewischt werden, denn als Mitch und Matt einer kriminellen Verschwörung auf die Spur kommen, die ihren Strand bedroht, müssen sie als Team perfekt funktionieren...



Unique ID                                : 202515542501156196292350995513144553588 (0x985B1322DC4F17BE8EDDA2AA434CB074)
Complete name                            : pso-baywatch_webhd.1080p.mkv
Format                                   : Matroska
Format version                           : Version 4 / Version 2
File size                                : 4.18 GiB
Duration                                 : 1h 56mn
Overall bit rate                         : 5 132 Kbps
Encoded date                             : UTC 2017-08-15 13:36:00
Writing application                      : mkvmerge v8.0.0 ('Til The Day That I Die') 64bit
Writing library                          : libebml v1.3.1 + libmatroska v1.4.2
DURATION                                 : 01:56:39.776000000
NUMBER_OF_FRAMES                         : 218743
NUMBER_OF_BYTES                          : 195993728
_STATISTICS_WRITING_APP                  : mkvmerge v8.0.0 ('Til The Day That I Die') 64bit
_STATISTICS_WRITING_DATE_UTC             : 2017-08-15 13:36:00
_STATISTICS_TAGS                         : BPS DURATION NUMBER_OF_FRAMES NUMBER_OF_BYTES

Video
ID                                       : 1
Format                                   : AVC
Format/Info                              : Advanced Video Codec
Format profile                           : High@L4.0
Format settings, CABAC                   : Yes
Format settings, ReFrames                : 5 frames
Codec ID                                 : V_MPEG4/ISO/AVC
Duration                                 : 1h 56mn
Bit rate                                 : 4 422 Kbps
Width                                    : 1 920 pixels
Height                                   : 804 pixels
Display aspect ratio                     : 2.40:1
Frame rate mode                          : Constant
Frame rate                               : 23.976 fps
Color space                              : YUV
Chroma subsampling                       : 4:2:0
Bit depth                                : 8 bits
Scan type                                : Progressive
Bits/(Pixel*Frame)                       : 0.119
Stream size                              : 3.60 GiB (86%)
Language                                 : English
Default                                  : Yes
Forced                                   : Yes
Color primaries                          : BT.709
Transfer characteristics                 : BT.709
Matrix coefficients                      : BT.709

Audio #1
ID                                       : 2
Format                                   : AC-3
Format/Info                              : Audio Coding 3
Mode extension                           : CM (complete main)
Format settings, Endianness              : Big
Codec ID                                 : A_AC3
Duration                                 : 1h 56mn
Bit rate mode                            : Constant
Bit rate                                 : 224 Kbps
Channel(s)                               : 2 channels
Channel positions                        : Front: L R
Sampling rate                            : 48.0 KHz
Bit depth                                : 16 bits
Compression mode                         : Lossy
Delay relative to video                  : -43ms
Stream size                              : 187 MiB (4%)
Language                                 : German
Default                                  : Yes
Forced                                   : Yes

Audio #2
ID                                       : 3
Format                                   : AC-3
Format/Info                              : Audio Coding 3
Mode extension                           : CM (complete main)
Format settings, Endianness              : Big
Codec ID                                 : A_AC3
Duration                                 : 1h 56mn
Bit rate mode                            : Constant
Bit rate                                 : 384 Kbps
Channel(s)                               : 6 channels
Channel positions                        : Front: L C R, Side: L R, LFE
Sampling rate                            : 48.0 KHz
Bit depth                                : 16 bits
Compression mode                         : Lossy
Delay relative to video                  : -43ms
Stream size                              : 320 MiB (7%)
Language                                 : English
Default                                  : No
Forced                                   : No


Download:
Share Online | Rapidgator.net Share Online | Rapidgator.netShare Online | Rapidgator.netShare Online | Rapidgator.net
 

Kommentare

  1. Geschrieben am 20. August 2017, 15:28 Uhr von Uwe · #

    Brauch ich nen Neues Entpackprogramm oder warum hab ich in letzter Zeit immer CRC Fehler beim Entpacken? Wie hier auch bei Diesem Upload

    / solltest eher mal deine Hardware checken. Ram, Festplatte?