Filmwünsche können bei uns im Forum abgegeben werden

Wir Speichern Nicht




 
 
 
Top Releases
Der.Duellist.2016.German.108...
Der.Duellist.2016.German.720...
Planet.der.Affen.Revolution....
The.LEGO.Batman.Movie.2017.M...
The.Mermaid.2016.MULTi.COMPL...
Valerian.Die.Stadt.der.tause...
X-Men.Erste.Entscheidung.201...
Spider.Man.Homecoming.2017.G...
Beta.Test.2016.MULTi.COMPLET...
Valerian.Die.Stadt.der.tause...

Cinedubs
Barry.Seal.Only.in.America.G...
Barry.Seal.Only.in.America.G...
Barry.Seal.Only.in.America.2...
Barry.Seal.Only.in.America.2...
The.Big.Sick.GERMAN.DL.MD.10...
The.Big.Sick.GERMAN.DL.MD.72...
Geostorm.German.DL.MD.720p.H...
American.Assassin.2017.Germa...
American.Assassin.2017.Germa...
Colossal.2016.German.AC3D.DL...

Neuerscheinungen 2016-17
The.Harvest.2013.German.DL.7...
The.Harvest.2013.German.DL.1...
Killing.Ground.2016.German.D...
Uncle.Nick.2015.German.DL.10...
Valerian.Die.Stadt.der.tause...
Wish.for.Christmas.Glaube.an...
Ihre.beste.Stunde.2016.Germa...
Wish.for.Christmas.Glaube.an...
Uncle.Nick.2015.German.720p....
Uncle.Nick.2015.German.DL.10...

XXX
InnocentHigh.17.11.13.Alyce....
FitnessRooms.17.11.13.Barbie...
HotGuysFuck.17.10.27.Dorian....
ElegantAnal.17.11.13.Henessy...
EvilAngel.Open.My.Ass.2.XXX....
AdultAuditions.E54.Perfect.P...
EternalDesire.17.11.11.Elina...
AdultAuditions.E51.Natural.T...
FullyClothedPissing.17.11.12...
AdultAuditions.E48.Juicy.Jen...
AdultAuditions.E55.Natural.T...
InfernalRestraints.17.11.10....
FakeTaxi.17.11.12.Pippa.Blon...
GirlsRimming.17.11.03.Sofi.G...
HotGuysFuck.17.11.10.Gio.Loc...
HuCows.17.10.14.Penny.Lee.Re...
ImmoralLive.17.11.11.Lady.De...
AdultAuditions.E44.Hot.Blond...
FakeAgent.17.11.13.Tina.Bell...
AdultAuditions.E47.Hot.Emo.P...

3D
Abenteuer.Safari.3D.Safari.P...
Die.Schneekoenigin.3.3D.2016...
Spider.Man.Homecoming.3D.201...
Terminator.2.Tag.der.Abrechn...
Terminator.2.Tag.der.Abrechn...
Terminator.2.Tag.der.Abrechn...
Spider.Man.Homecoming.3D.201...
The.Spacewalker.3D.2017.DL.c...
Ich.Einfach.unverbesserlich....
Ich.Einfach.unverbesserlich....
Jail.Bait.3D.2013.2D3D.MULTi...
Planet.der.Affen.Survival.20...
Planet.der.Affen.Survival.20...
Sword.Master.3D.2016.2D3D.GE...
Sword.Master.3D.2016.German....

Old_Stuff
Tomb.Raider.2001.DUAL.COMPLE...
Tomb.Raider.Die.Wiege.des.Le...
Party.Animals.3.German.AC3.7...
The.Rocky.Horror.Picture.Sho...
Die.Fliege.1986.German.DTS.1...
Mimic.2.2001.German.DD5.1D.D...
The.Tournament.UNCUT.2009.Ge...
Dr.House.S08.German.720p.Blu...
Dr.House.S07.German.720p.Blu...
Dr.House.S06.German.720p.Blu...
Dr.House.S05.German.720p.Blu...
Dr.House.S04.German.720p.Blu...
Dr.House.S03.German.720p.Blu...
Dr.House.S02.German.720p.Blu...
Dr.House.S01.German.720p.Blu...

Musik
Remote.Galaxy.by.Flint.Juven...
Trondheim.Solistene.Souvenir...
The.Beatles.Sgt.Peppers.Lone...
The.Prometheus.Dolby.Atmos.E...
R.E.M.OUT.OF.TIME.25th.Anniv...
The.Rolling.Stones.GRRR.BR-A...
Mussorgsky.Bilder.einer.Auss...
Yes.-.The.Yes.Album.Bluray-A...
Carlos.Heredia.Gypsy.Flamenc...
SPES.2014.complete.Bluray.un...
Carlos.Santana.Collection.19...
Pink.Floyd.The.Endless.River...
The.Hyperion.Romantic.Piano....
Putumayo.113.CD.Flac.lossles...
UFO.Let.It.Roll.Limited.Edit...

Filme
Terminator.2.Tag.der.Abrechn...
Prinzessin.Dornroeschen.1978...
Home.Guards.2015.German.1080...
Re.E137.Bernstein.Fieber.-.I...
Hercules.THEATRICAL.2014.Ger...
American.Horror.Story.S07.GE...
Preacher.S02D01-3.MULTi.COMP...
American.Horror.Story.S07.GE...
The.Shannara.Chronicles.S02....
The.Long.Road.Home.S01.GERMA...
Mr.Babysitter.1993.UNCUT.Ger...
Nachtlaerm.German.DL.1080p.B...
Hidden.in.the.Woods.2014.Ger...
Verborgene.Schoenheit.2016.G...
Ritter.Rost.2.Das.Schrottkom...
The.First.Avenger.Civil.War....
Der.Unbeugsame.1967.German.D...
Vehicle.19.2013.German.DL.10...
Bad.Moms.2016.German.DL.1080...
Newsies.Die.Zeitungsjungen.1...
Clueless.1995.German.AC3D.DL...
Mountain.Men.-.Ueberleben.in...
Bad.Medicine.1985.German.AC3...
Mountain.Men.-.Ueberleben.in...

 
 
Verleugnung.2016.German.DL.1080p.BluRay.x264-BluRHD
Jahr: 2016
Genre: Biography | Drama
Sprache: Deutsch DTS | Englisch DTS
Laufzeit: 1h 50mn
Bitrate: 9 061 Kbps
Format: MKV
Größe: 7.00 GiB
Release:

Beschreibung:

Die amerikanische Universitätsprofessorin Deborah E. Lipstadt (Rachel Weisz) wird unerwartet zur Verteidigerin der historischen Wahrheit, als der britische Autor David Irving (Timothy Spall) sie wegen Verleumdung verklagt. In ihrem jüngsten Buch hatte Lipstadt ihm die Leugnung des Holocaust vorgeworfen. Durch das britische Justizsystem in die Defensive gedrängt, steht sie nun gemeinsam mit ihren Verteidigern, angeführt von Richard Rampton (Tom Wilkinson), vor dem absurden Problem, nicht nur sich selbst zu verteidigen, sondern auch beweisen zu müssen, dass der Holocaust tatsächlich stattgefunden hat.
Statt sich jedoch eingeschüchtert zu geben, weckt diese scheinbar unlösbare Aufgabe ihren Kampfgeist. Lipstadt lehnt jeden Vergleich ab und stellt sich vor Gericht ihrem unerbittlichen Gegner...



General
Unique ID                                : 223648372971779384792620051739873870372 (0xA8411C1F4274784DAAAC792361EB8224)
Complete name                            : bhd-verl-1080p.mkv
Format                                   : Matroska
Format version                           : Version 2
File size                                : 7.00 GiB
Duration                                 : 1h 50mn
Overall bit rate                         : 9 061 Kbps
Encoded date                             : UTC 2017-08-14 20:01:15
Writing application                      : mkvmerge v4.5.0 ('Speed of Light') gebaut am Feb  1 2011 02:10:32
Writing library                          : libebml v1.2.0 + libmatroska v1.1.0

Video
ID                                       : 1
Format                                   : AVC
Format/Info                              : Advanced Video Codec
Format profile                           : High@L4.1
Format settings, CABAC                   : Yes
Format settings, ReFrames                : 4 frames
Codec ID                                 : V_MPEG4/ISO/AVC
Duration                                 : 1h 50mn
Bit rate                                 : 6 043 Kbps
Width                                    : 1 920 pixels
Height                                   : 804 pixels
Display aspect ratio                     : 2.40:1
Frame rate mode                          : Constant
Frame rate                               : 24.000 fps
Color space                              : YUV
Chroma subsampling                       : 4:2:0
Bit depth                                : 8 bits
Scan type                                : Progressive
Bits/(Pixel*Frame)                       : 0.163
Stream size                              : 4.53 GiB (65%)
Writing library                          : x264 core 148 r2744 b97ae06
Encoding settings                        : cabac=1 / ref=5 / deblock=1:-1:-1 / analyse=0x3:0x113 / me=umh / subme=7 / psy=1 / psy_rd=1.00:0.15 / mixed_ref=1 / me_range=16 / chroma_me=1 / trellis=2 / 8x8dct=1 / cqm=0 / deadzone=21,11 / fast_pskip=1 / chroma_qp_offset=-3 / threads=25 / lookahead_threads=4 / sliced_threads=0 / nr=0 / decimate=1 / interlaced=0 / bluray_compat=0 / constrained_intra=0 / bframes=3 / b_pyramid=1 / b_adapt=2 / b_bias=0 / direct=1 / weightb=1 / open_gop=0 / weightp=1 / keyint=240 / keyint_min=24 / scenecut=40 / intra_refresh=0 / rc_lookahead=30 / rc=2pass / mbtree=1 / bitrate=6043 / ratetol=1.0 / qcomp=0.60 / qpmin=0 / qpmax=69 / qpstep=4 / cplxblur=20.0 / qblur=0.5 / ip_ratio=1.40 / aq=1:1.00
Default                                  : Yes
Forced                                   : No

Audio #1
ID                                       : 2
Format                                   : DTS
Format/Info                              : Digital Theater Systems
Mode                                     : 16
Format settings, Endianness              : Big
Codec ID                                 : A_DTS
Duration                                 : 1h 50mn
Bit rate mode                            : Constant
Bit rate                                 : 1 509 Kbps
Channel(s)                               : 6 channels
Channel positions                        : Front: L C R, Side: L R, LFE
Sampling rate                            : 48.0 KHz
Bit depth                                : 24 bits
Compression mode                         : Lossy
Stream size                              : 1.17 GiB (17%)
Title                                    : German
Language                                 : German
Default                                  : Yes
Forced                                   : No

Audio #2
ID                                       : 3
Format                                   : DTS
Format/Info                              : Digital Theater Systems
Mode                                     : 16
Format settings, Endianness              : Big
Codec ID                                 : A_DTS
Duration                                 : 1h 50mn
Bit rate mode                            : Constant
Bit rate                                 : 1 509 Kbps
Channel(s)                               : 6 channels
Channel positions                        : Front: L C R, Side: L R, LFE
Sampling rate                            : 48.0 KHz
Bit depth                                : 24 bits
Compression mode                         : Lossy
Stream size                              : 1.17 GiB (17%)
Title                                    : English
Language                                 : English
Default                                  : No
Forced                                   : No

Text #1
ID                                       : 4
Format                                   : VobSub
Muxing mode                              : zlib
Codec ID                                 : S_VOBSUB
Codec ID/Info                            : The same subtitle format used on DVDs
Title                                    : German forced
Language                                 : German
Default                                  : Yes
Forced                                   : Yes

Text #2
ID                                       : 5
Format                                   : VobSub
Muxing mode                              : zlib
Codec ID                                 : S_VOBSUB
Codec ID/Info                            : The same subtitle format used on DVDs
Title                                    : German complete
Language                                 : German
Default                                  : No
Forced                                   : No


Download:
Share Online | Rapidgator.net Share Online | Rapidgator.netShare Online | Rapidgator.netShare Online | Rapidgator.net
 

Kommentare