Filmwünsche können bei uns im Forum abgegeben werden

Wir Speichern Nicht




 
 
 
Top Releases
Der.Duellist.2016.German.108...
Der.Duellist.2016.German.720...
Planet.der.Affen.Revolution....
The.LEGO.Batman.Movie.2017.M...
The.Mermaid.2016.MULTi.COMPL...
Valerian.Die.Stadt.der.tause...
X-Men.Erste.Entscheidung.201...
Spider.Man.Homecoming.2017.G...
Beta.Test.2016.MULTi.COMPLET...
Valerian.Die.Stadt.der.tause...

Cinedubs
Barry.Seal.Only.in.America.G...
Barry.Seal.Only.in.America.G...
Barry.Seal.Only.in.America.2...
Barry.Seal.Only.in.America.2...
The.Big.Sick.GERMAN.DL.MD.10...
The.Big.Sick.GERMAN.DL.MD.72...
Geostorm.German.DL.MD.720p.H...
American.Assassin.2017.Germa...
American.Assassin.2017.Germa...
Colossal.2016.German.AC3D.DL...

Neuerscheinungen 2016-17
The.Harvest.2013.German.DL.7...
The.Harvest.2013.German.DL.1...
Killing.Ground.2016.German.D...
Uncle.Nick.2015.German.DL.10...
Valerian.Die.Stadt.der.tause...
Wish.for.Christmas.Glaube.an...
Ihre.beste.Stunde.2016.Germa...
Wish.for.Christmas.Glaube.an...
Uncle.Nick.2015.German.720p....
Uncle.Nick.2015.German.DL.10...

XXX
InnocentHigh.17.11.13.Alyce....
FitnessRooms.17.11.13.Barbie...
HotGuysFuck.17.10.27.Dorian....
ElegantAnal.17.11.13.Henessy...
EvilAngel.Open.My.Ass.2.XXX....
AdultAuditions.E54.Perfect.P...
EternalDesire.17.11.11.Elina...
AdultAuditions.E51.Natural.T...
FullyClothedPissing.17.11.12...
AdultAuditions.E48.Juicy.Jen...
AdultAuditions.E55.Natural.T...
InfernalRestraints.17.11.10....
FakeTaxi.17.11.12.Pippa.Blon...
GirlsRimming.17.11.03.Sofi.G...
HotGuysFuck.17.11.10.Gio.Loc...
HuCows.17.10.14.Penny.Lee.Re...
ImmoralLive.17.11.11.Lady.De...
AdultAuditions.E44.Hot.Blond...
FakeAgent.17.11.13.Tina.Bell...
AdultAuditions.E47.Hot.Emo.P...

3D
Abenteuer.Safari.3D.Safari.P...
Die.Schneekoenigin.3.3D.2016...
Spider.Man.Homecoming.3D.201...
Terminator.2.Tag.der.Abrechn...
Terminator.2.Tag.der.Abrechn...
Terminator.2.Tag.der.Abrechn...
Spider.Man.Homecoming.3D.201...
The.Spacewalker.3D.2017.DL.c...
Ich.Einfach.unverbesserlich....
Ich.Einfach.unverbesserlich....
Jail.Bait.3D.2013.2D3D.MULTi...
Planet.der.Affen.Survival.20...
Planet.der.Affen.Survival.20...
Sword.Master.3D.2016.2D3D.GE...
Sword.Master.3D.2016.German....

Old_Stuff
Tomb.Raider.2001.DUAL.COMPLE...
Tomb.Raider.Die.Wiege.des.Le...
Party.Animals.3.German.AC3.7...
The.Rocky.Horror.Picture.Sho...
Die.Fliege.1986.German.DTS.1...
Mimic.2.2001.German.DD5.1D.D...
The.Tournament.UNCUT.2009.Ge...
Dr.House.S08.German.720p.Blu...
Dr.House.S07.German.720p.Blu...
Dr.House.S06.German.720p.Blu...
Dr.House.S05.German.720p.Blu...
Dr.House.S04.German.720p.Blu...
Dr.House.S03.German.720p.Blu...
Dr.House.S02.German.720p.Blu...
Dr.House.S01.German.720p.Blu...

Musik
Remote.Galaxy.by.Flint.Juven...
Trondheim.Solistene.Souvenir...
The.Beatles.Sgt.Peppers.Lone...
The.Prometheus.Dolby.Atmos.E...
R.E.M.OUT.OF.TIME.25th.Anniv...
The.Rolling.Stones.GRRR.BR-A...
Mussorgsky.Bilder.einer.Auss...
Yes.-.The.Yes.Album.Bluray-A...
Carlos.Heredia.Gypsy.Flamenc...
SPES.2014.complete.Bluray.un...
Carlos.Santana.Collection.19...
Pink.Floyd.The.Endless.River...
The.Hyperion.Romantic.Piano....
Putumayo.113.CD.Flac.lossles...
UFO.Let.It.Roll.Limited.Edit...

Filme
Terminator.2.Tag.der.Abrechn...
Prinzessin.Dornroeschen.1978...
Home.Guards.2015.German.1080...
Re.E137.Bernstein.Fieber.-.I...
Hercules.THEATRICAL.2014.Ger...
American.Horror.Story.S07.GE...
Preacher.S02D01-3.MULTi.COMP...
American.Horror.Story.S07.GE...
The.Shannara.Chronicles.S02....
The.Long.Road.Home.S01.GERMA...
Mr.Babysitter.1993.UNCUT.Ger...
Nachtlaerm.German.DL.1080p.B...
Hidden.in.the.Woods.2014.Ger...
Verborgene.Schoenheit.2016.G...
Ritter.Rost.2.Das.Schrottkom...
The.First.Avenger.Civil.War....
Der.Unbeugsame.1967.German.D...
Vehicle.19.2013.German.DL.10...
Bad.Moms.2016.German.DL.1080...
Newsies.Die.Zeitungsjungen.1...
Clueless.1995.German.AC3D.DL...
Mountain.Men.-.Ueberleben.in...
Bad.Medicine.1985.German.AC3...
Mountain.Men.-.Ueberleben.in...

 
 
Black.Butterfly.Der.Moerder.in.mir.2017.German.DL.DTS.1080p.BluRay.x265-SHOWEHD
Jahr: 2017
Genre: Thriller
Sprache: Deutsch DTS | Englisch DTS
Laufzeit: 1h 33mn
Bitrate: 4 774 Kbps
Format: MKV
Größe: 3.10 GiB
Release:

Beschreibung:

Beim Drehbuchautor Paul (Antonio Banderas) läuft es nicht besonders gut, weder privat noch bei der Arbeit. Eines Tages lernt er dann Jack (Jonathan Rhys Meyers) kennen, den Paul auf dem Weg zu seinem Haus auf der Straße aufgabelt. Weil sich schlechtes Wetter ankündigt, bietet er dem jungen Mann an, für eine Nacht im Haus unterzukommen. Eine Entscheidung, die Paul wenig später bitter bereuen soll, denn Jack entpuppt sich als kranker Psychopath, der Paul gefangen nimmt und nicht vor Waffengewalt zurückschreckt. Jack zwingt Paul schließlich, eine mörderische Geschichte zu schreiben – auf diese Weise kommen alte Geheimnisse zum Vorschein, die die Beziehung zwischen den beiden Männern in ein völlig neues Licht rückt...

 

x265



Unique ID                                : 209038555987747525157431360758003477877 (0x9D435C880A995E72B1A479E6284B2D75)
Complete name                            : SHHD-Blabutterx265.mkv
Format                                   : Matroska
Format version                           : Version 4 / Version 2
File size                                : 3.10 GiB
Duration                                 : 1h 33mn
Overall bit rate                         : 4 774 Kbps
Encoded date                             : UTC 2017-08-16 16:15:29
Writing application                      : mkvmerge v9.5.0 ('Quiet Fire') 64bit
Writing library                          : libebml v1.3.4 + libmatroska v1.4.5
DURATION                                 : 00:04:17.382000000
NUMBER_OF_FRAMES                         : 3
NUMBER_OF_BYTES                          : 207
_STATISTICS_WRITING_APP                  : mkvmerge v9.5.0 ('Quiet Fire') 64bit
_STATISTICS_WRITING_DATE_UTC             : 2017-08-16 16:15:29
_STATISTICS_TAGS                         : BPS DURATION NUMBER_OF_FRAMES NUMBER_OF_BYTES

Video
ID                                       : 1
Format                                   : HEVC
Format/Info                              : High Efficiency Video Coding
Format profile                           : Main@L4.0
Codec ID                                 : V_MPEGH/ISO/HEVC
Duration                                 : 1h 33mn
Bit rate                                 : 1 661 Kbps
Width                                    : 1 920 pixels
Height                                   : 800 pixels
Display aspect ratio                     : 2.40:1
Frame rate mode                          : Constant
Frame rate                               : 23.976 fps
Color space                              : YUV
Chroma subsampling                       : 4:2:0
Bit depth                                : 8 bits
Bits/(Pixel*Frame)                       : 0.045
Stream size                              : 1.08 GiB (35%)
Writing library                          : x265 2.2+2-998d4520d1cf:[Windows][GCC 6.2.0][64 bit] 8bit+10bit+12bit
Encoding settings                        : cpuid=1173503 / frame-threads=6 / numa-pools=20,20 / wpp / no-pmode / no-pme / no-psnr / no-ssim / log-level=2 / input-csp=1 / input-res=1920x800 / interlace=0 / total-frames=133859 / level-idc=0 / high-tier=1 / uhd-bd=0 / ref=4 / no-allow-non-conformance / no-repeat-headers / annexb / no-aud / no-hrd / info / hash=0 / no-temporal-layers / open-gop / min-keyint=23 / keyint=250 / bframes=4 / b-adapt=2 / b-pyramid / bframe-bias=0 / rc-lookahead=25 / lookahead-slices=4 / scenecut=40 / no-intra-refresh / ctu=64 / min-cu-size=8 / rect / no-amp / max-tu-size=32 / tu-inter-depth=1 / tu-intra-depth=1 / limit-tu=0 / rdoq-level=2 / signhide / no-tskip / nr-intra=0 / nr-inter=0 / no-constrained-intra / strong-intra-smoothing / max-merge=3 / limit-refs=3 / limit-modes / me=3 / subme=3 / merange=57 / temporal-mvp / weightp / no-weightb / no-analyze-src-pics / deblock=0:0 / sao / no-sao-non-deblock / rd=4 / no-early-skip / rskip / no-fast-intra / no-tskip-fast / no-cu-lossless / no-b-intra / rdpenalty=0 / psy-rd=2.00 / psy-rdoq=1.00 / no-rd-refine / analysis-mode=0 / no-lossless / cbqpoffs=0 / crqpoffs=0 / rc=crf / crf=20.0 / qcomp=0.60 / qpstep=4 / stats-write=0 / stats-read=0 / ipratio=1.40 / pbratio=1.30 / aq-mode=1 / aq-strength=1.00 / cutree / zone-count=0 / no-strict-cbr / qg-size=32 / no-rc-grain / qpmax=69 / qpmin=0 / sar=1 / overscan=0 / videoformat=5 / range=0 / colorprim=2 / transfer=2 / colormatrix=2 / chromaloc=0 / display-window=0 / max-cll=0,0 / min-luma=0 / max-luma=255 / log2-max-poc-lsb=8 / vui-timing-info / vui-hrd-info / slices=1 / opt-qp-pps / opt-ref-list-length-pps / no-multi-pass-opt-rps / scenecut-bias=0.05
Language                                 : German
Default                                  : Yes
Forced                                   : No

Audio #1
ID                                       : 2
Format                                   : DTS
Format/Info                              : Digital Theater Systems
Mode                                     : 16
Format settings, Endianness              : Big
Codec ID                                 : A_DTS
Duration                                 : 1h 33mn
Bit rate mode                            : Constant
Bit rate                                 : 1 509 Kbps
Channel(s)                               : 6 channels
Channel positions                        : Front: L C R, Side: L R, LFE
Sampling rate                            : 48.0 KHz
Bit depth                                : 24 bits
Compression mode                         : Lossy
Stream size                              : 1 004 MiB (32%)
Language                                 : German
Default                                  : Yes
Forced                                   : No

Audio #2
ID                                       : 3
Format                                   : DTS
Format/Info                              : Digital Theater Systems
Mode                                     : 16
Format settings, Endianness              : Big
Codec ID                                 : A_DTS
Duration                                 : 1h 33mn
Bit rate mode                            : Constant
Bit rate                                 : 1 509 Kbps
Channel(s)                               : 6 channels
Channel positions                        : Front: L C R, Side: L R, LFE
Sampling rate                            : 48.0 KHz
Bit depth                                : 24 bits
Compression mode                         : Lossy
Stream size                              : 1 004 MiB (32%)
Language                                 : English
Default                                  : No
Forced                                   : No

Text
ID                                       : 4
Format                                   : UTF-8
Codec ID                                 : S_TEXT/UTF8
Codec ID/Info                            : UTF-8 Plain Text
Title                                    : German Forced
Language                                 : German
Default                                  : Yes
Forced                                   : No


Download:
Share Online | Rapidgator.net Share Online | Rapidgator.netShare Online | Rapidgator.netShare Online | Rapidgator.net
 

Kommentare