SUPPORT HD-AREA

Filmwünsche können bei uns im Forum abgegeben werden

Wir Speichern Nicht




 
 
 
Top Releases
Gluecklich.geschieden.Mama.g...
28.Soldiers.Die.Panzerschlac...
Born.to.Be.Blue.2015.German....
Gluecklich.geschieden.Mama.g...
The.Autopsy.of.Jane.Doe.2016...
The.Autopsy.of.Jane.Doe.2016...
Star.Trek.Beyond.2016.German...
Gluecklich.Geschieden.Mama.G...
Ueberflieger.2017.DUAL.COMPL...
Dark.Web.Kontrolle.ist.eine....

Cinedubs
Casino.Undercover.2017.Germa...
Casino.Undercover.2017.Germa...
What.Happened.to.Monday.2017...
What.Happened.to.Monday.2017...
Planet.der.Affen.Survival.20...
Planet.der.Affen.Survival.20...
Cars.3.2017.GERMAN.DL.MD.108...
Cars.3.2017.GERMAN.DL.MD.720...
Atomic.Blonde.German.AC3.Dub...
Atomic.Blonde.German.AC3.Dub...

Neuerscheinungen 2016-17
Northpole.Weihnachten.geoeff...
Northpole.Weihnachten.geoeff...
Pettersson.Und.Findus.2.Das....
The.Dinner.2017.German.720p....
Resident.Evil.The.Final.Chap...
Maschinenland.Mankind.Down.R...
Dunkirk.Die.Schlacht.von.Due...
Maschinenland.Mankind.Down.2...
Maschinenland.Mankind.Down.2...
Maschinenland.Mankind.Down.2...

XXX
AllOver30.17.10.12.Melanie.H...
ArchAngel.17.10.13.Kendra.Lu...
Anal-Beauty.17.10.16.Vany.Ul...
ArchAngel.17.10.11.Cherie.De...
BackroomCastingCouch.17.10.1...
Bang.Casting.17.10.11.Keisha...
AbbyWinters.17.10.14.Juliana...
BigWetButts.17.10.15.Dee.Wil...
BrazzersExxtra.17.10.12.Keis...
Anilos.17.10.14.Leilani.Lei....
Bang.Confessions.17.10.13.Gi...
AussiePOV.15.01.08.Madison.M...
Beauty-Angels.17.10.14.Jenny...
AussiePOV.17.02.16.Dianne.De...
BabyGotBoobs.17.10.16.Vivian...
Bang.RealTeens.17.10.16.Maya...
ATKGirlfriends.17.10.11.Kris...
ATKGirlfriends.17.10.13.Nina...
AussiePOV.17.04.20.Kim.Cums....
Baeb.17.10.14.Haley.Reed.Sun...

3D
Patagonia.3D.Auf.den.Spuren....
Pirates.of.the.Caribbean.Sal...
Transformers.The.Last.Knight...
Faszination.Island.Das.Parad...
The.Final.Destination.4.3D.2...
The.Warriors.Gate.3D.2016.DU...
Wonder.Woman.3D.2017.MULTI.C...
Tutanchamun.3D.2012.COMPLETE...
Wonder.Woman.3D.HSBS.2017.Ge...
Wonder.Woman.3D.HOU.2017.Ger...
Pirates.of.the.Caribbean.Sal...
Pirates.of.the.Caribbean.Sal...
Die.Mumie.3D.2017.MULTi.COMP...
Wickie.auf.grosser.Fahrt.3D....
Die.Mumie.3D.HSBS.2017.Germa...

Old_Stuff
Chicago.Fire.S04.German.DL.1...
Chicago.Fire.S04.German.DL.7...
Conan.The.Barbarian.2011.Ger...
Conan.The.Barbarian.2011.Ger...
Die.Olsenbande.sieht.rot.197...
Olsenbande.steigt.aufs.Dach....
Malcolm.mittendrin.S05.Germa...
Malcolm.mittendrin.S04.Germa...
Life.of.Pi.2012.German.DTS.D...
Rest.Stop.Dont.Look.Back.UNC...
Koenig.der.Loewen.3D.German....
Schuesse.im.Dreiviertel.Takt...
Airwolf.S02.DUAL.BLURAY.COMP...
Don.2.The.King.is.Back.2011....
Prison.Break.S04.Complete.Ge...

Musik
The.Beatles.Sgt.Peppers.Lone...
The.Prometheus.Dolby.Atmos.E...
R.E.M.OUT.OF.TIME.25th.Anniv...
The.Rolling.Stones.GRRR.BR-A...
Mussorgsky.Bilder.einer.Auss...
Yes.-.The.Yes.Album.Bluray-A...
Carlos.Heredia.Gypsy.Flamenc...
SPES.2014.complete.Bluray.un...
Carlos.Santana.Collection.19...
Pink.Floyd.The.Endless.River...
The.Hyperion.Romantic.Piano....
Putumayo.113.CD.Flac.lossles...

Filme
Rumble.in.the.Bronx.1995.Ger...
Premutos.1997.German.DTS-HD....
Eine.Nacht.bei.McCools.Uncut...
Broken.Horses.2015.German.DL...
Baby.Mama.2008.German.1080p....
Die.Nacht.der.Jaeger.2011.Ge...
Die.Nacht.der.Woelfe.2011.Ge...
Jenseits.der.weissen.Linie.1...
American.Psycho.2000.German....
A.Nannys.Secret.2009.German....
Stephen.Kings.A.Good.Marriag...
In.the.Club.Stand.Up.Strip.D...
Die.Mannschaft.2014.German.1...
Die.Maske.runter.1952.German...
Die.Mamba.Gefaehrlich.lustig...
Fear.The.Walking.Dead.S03.CO...
Der.Schakal.1997.DUAL.COMPLE...
Outlander.S03.German.DD51.DL...
Outlander.S03.German.DD51.DL...
Die.Simpsons.S28.GERMAN.DUBB...
Die.Simpsons.S28.GERMAN.DUBB...
Bones.Die.Knochenjaegerin.S1...
Sleepy.Hollow.S04.GERMAN.DUB...
Colony.S01.GERMAN.DUBBED.720...

 
 
Sleepy.Hollow.S04.GERMAN.DL.1080p.HDTV.h264-ACED
Jahr: 2017
Genre: Abenteuer | Drama | Fantasy
Sprache: Deutsch AC3 | Englisch AC3
Laufzeit: 41min je Folge
Bitrate: 6800 Kbps
Format: MKV
Größe: 2,2 GB je Folge
Release:

Beschreibung:

Die US-Serie „Sleepy Hollow“ basiert auf Washington Irvings Kurzgeschichte „The Legend of Sleepy Hollow“ und wird in die moderne Zeit verlagert. Die Hauptfigur ist der aus der Geschichte um Sleepy Hollow bekannte Ichabod Crane (Tom Mison). Nach seinem Tod wird der ehemalige Captain aus dem amerikanischen Unabhängigkeitskrieg wiederbelebt und 250 Jahre in die Zukunft gesogen. Dort muss er sich erneut mit seinem alten Erzfeind auseinandersetzen: Der kopflose Reiter, den Crane im Krieg selbst geköpft hatte und der in der Neuzeit auf einer mörderischen Mission ist.

enthaltene Folgen:

Sleepy.Hollow.S04E01.GERMAN.DL.1080p.HDTV.h264-ACED

Sleepy.Hollow.S04E02.GERMAN.DL.1080p.HDTV.h264-ACED

Sleepy.Hollow.S04E03.GERMAN.DL.1080p.HDTV.h264-ACED

Sleepy.Hollow.S04E04.GERMAN.DL.1080p.HDTV.h264-ACED

Sleepy.Hollow.S04E05.GERMAN.DL.1080p.HDTV.h264-ACED

Sleepy.Hollow.S04E06.GERMAN.DL.1080p.HDTV.h264-ACED NEU



General
Complete name                            : Sleepy.Hollow.S04E01.GERMAN.DL.1080p.HDTV.h264-ACED\Sleepy.Hollow.S04E01.GERMAN.DL.1080p.HDTV.h264-ACED.mkv
Format                                   : Matroska
Format version                           : Version 2
File size                                : 2.19 GiB
Duration                                 : 41mn 23s
Overall bit rate                         : 7 589 Kbps
Encoded date                             : UTC 2017-09-07 04:46:01
Writing application                      : mkvmerge v15.0.0 ('Duel with the Devil') 64-bit
Writing library                          : libebml v1.3.5 + libmatroska v1.4.5
DURATION                                 : 00:41:23.296000000
NUMBER_OF_FRAMES                         : 77603
NUMBER_OF_BYTES                          : 59599104
_STATISTICS_WRITING_APP                  : mkvmerge v15.0.0 ('Duel with the Devil') 64-bit
_STATISTICS_WRITING_DATE_UTC             : 2017-09-07 04:46:01
_STATISTICS_TAGS                         : BPS DURATION NUMBER_OF_FRAMES NUMBER_OF_BYTES

Video
ID                                       : 1
Format                                   : AVC
Format/Info                              : Advanced Video Codec
Format profile                           : High@L4.0
Format settings, CABAC                   : Yes
Format settings, ReFrames                : 4 frames
Codec ID                                 : V_MPEG4/ISO/AVC
Duration                                 : 41mn 23s
Bit rate                                 : 6 862 Kbps
Width                                    : 1 920 pixels
Height                                   : 1 080 pixels
Display aspect ratio                     : 16:9
Frame rate mode                          : Constant
Frame rate                               : 25.000 fps
Standard                                 : Component
Color space                              : YUV
Chroma subsampling                       : 4:2:0
Bit depth                                : 8 bits
Scan type                                : MBAFF
Bits/(Pixel*Frame)                       : 0.132
Stream size                              : 1.98 GiB (90%)
Default                                  : No
Forced                                   : No
Color primaries                          : BT.709
Transfer characteristics                 : BT.709
Matrix coefficients                      : BT.709
DURATION                                 : 00:41:23.320000000
NUMBER_OF_FRAMES                         : 62083
NUMBER_OF_BYTES                          : 2176246208
_STATISTICS_WRITING_APP                  : mkvmerge v15.0.0 ('Duel with the Devil') 64-bit
_STATISTICS_WRITING_DATE_UTC             : 2017-09-07 04:46:01
_STATISTICS_TAGS                         : BPS DURATION NUMBER_OF_FRAMES NUMBER_OF_BYTES

Audio #1
ID                                       : 2
Format                                   : AC-3
Format/Info                              : Audio Coding 3
Mode extension                           : CM (complete main)
Format settings, Endianness              : Big
Codec ID                                 : A_AC3
Duration                                 : 41mn 23s
Bit rate mode                            : Constant
Bit rate                                 : 384 Kbps
Channel(s)                               : 2 channels
Channel positions                        : Front: L R
Sampling rate                            : 48.0 KHz
Bit depth                                : 16 bits
Compression mode                         : Lossy
Delay relative to video                  : -40ms
Stream size                              : 114 MiB (5%)
Language                                 : German
Default                                  : Yes
Forced                                   : No

Audio #2
ID                                       : 3
Format                                   : AC-3
Format/Info                              : Audio Coding 3
Mode extension                           : CM (complete main)
Format settings, Endianness              : Big
Codec ID                                 : A_AC3
Duration                                 : 41mn 23s
Bit rate mode                            : Constant
Bit rate                                 : 192 Kbps
Channel(s)                               : 2 channels
Channel positions                        : Front: L R
Sampling rate                            : 48.0 KHz
Bit depth                                : 16 bits
Compression mode                         : Lossy
Delay relative to video                  : -40ms
Stream size                              : 56.8 MiB (3%)
Language                                 : English
Default                                  : No
Forced                                   : No



Download:
Share-Online.biz Share-Online.bizShare-Online.bizShare-Online.biz | Rapidgator.net Rapidgator.netRapidgator.netRapidgator.net
 

Kommentare

  1. Geschrieben am 16. September 2017, 15:54 Uhr von MasterF · #

    Leider hat es bei beiden Folgen der 4.Staffel extreme Bildstörungen. Mal stottert das Bild und dann läuft es einige Sekunden schneller. Wäre super wenn man das beheben könnte. Danke

  2. Geschrieben am 3. October 2017, 18:18 Uhr von MasterF · #

    Leider muss ich mich nochmals melden. Die Bildstörungen sind noch immer da. Es ist wirklich extrem störend. Bitte behebt das wenn möglich bei den nächsten Folgen. Ist fürs Auge wirklich mühsam.

    / Scheint andere entweder nicht zu stören oder sie sehen nicht das, was du siehst oder sie sind zu faul das zu melden. Keine Ahnung .... mhhh....
  3. Geschrieben am 4. October 2017, 18:07 Uhr von MasterF · #

    Ich kann nur sage das ich wirklich viele Serien und Filme schau und hier runterlade. Bisher immer einwandfrei, nur lieder bei dieser Serie nicht. Habe auch schon diverse Bildeinstellungen an meinen AV-Receiver durchgespielt, immer das selbe Resultat. Warum anderen das nicht auffallt kann ich auch nicht sagen, oder sind vielleicht wirklich zu faul es zu melden.

    / Uploader schrieb eben, dass er Teil 1 gecheckt hat und keine Probleme feststellen konnte. Auch gibt es keine Repacks. Du solltest vielleicht mal andere Player ausprobieren.
  4. Geschrieben am 5. October 2017, 17:58 Uhr von MasterF · #

    Danke erstmal für die Rückmeldung. Ich speichere alles auf meinem Qnap nas und das ist mit HDMI an meinen DENON Receiver angeschlossen, muss mal schauen ob ich da was einstellen muss.