SUPPORT HD-AREA

Filmwünsche können bei uns im Forum abgegeben werden

Wir Speichern Nicht




 
 
 
Top Releases
Gluecklich.geschieden.Mama.g...
28.Soldiers.Die.Panzerschlac...
Born.to.Be.Blue.2015.German....
Gluecklich.geschieden.Mama.g...
The.Autopsy.of.Jane.Doe.2016...
The.Autopsy.of.Jane.Doe.2016...
Star.Trek.Beyond.2016.German...
Gluecklich.Geschieden.Mama.G...
Ueberflieger.2017.DUAL.COMPL...
Dark.Web.Kontrolle.ist.eine....

Cinedubs
Casino.Undercover.2017.Germa...
Casino.Undercover.2017.Germa...
What.Happened.to.Monday.2017...
What.Happened.to.Monday.2017...
Planet.der.Affen.Survival.20...
Planet.der.Affen.Survival.20...
Cars.3.2017.GERMAN.DL.MD.108...
Cars.3.2017.GERMAN.DL.MD.720...
Atomic.Blonde.German.AC3.Dub...
Atomic.Blonde.German.AC3.Dub...

Neuerscheinungen 2016-17
Northpole.Weihnachten.geoeff...
Northpole.Weihnachten.geoeff...
Pettersson.Und.Findus.2.Das....
The.Dinner.2017.German.720p....
Resident.Evil.The.Final.Chap...
Maschinenland.Mankind.Down.R...
Dunkirk.Die.Schlacht.von.Due...
Maschinenland.Mankind.Down.2...
Maschinenland.Mankind.Down.2...
Maschinenland.Mankind.Down.2...

XXX
AllOver30.17.10.12.Melanie.H...
ArchAngel.17.10.13.Kendra.Lu...
Anal-Beauty.17.10.16.Vany.Ul...
ArchAngel.17.10.11.Cherie.De...
BackroomCastingCouch.17.10.1...
Bang.Casting.17.10.11.Keisha...
AbbyWinters.17.10.14.Juliana...
BigWetButts.17.10.15.Dee.Wil...
BrazzersExxtra.17.10.12.Keis...
Anilos.17.10.14.Leilani.Lei....
Bang.Confessions.17.10.13.Gi...
AussiePOV.15.01.08.Madison.M...
Beauty-Angels.17.10.14.Jenny...
AussiePOV.17.02.16.Dianne.De...
BabyGotBoobs.17.10.16.Vivian...
Bang.RealTeens.17.10.16.Maya...
ATKGirlfriends.17.10.11.Kris...
ATKGirlfriends.17.10.13.Nina...
AussiePOV.17.04.20.Kim.Cums....
Baeb.17.10.14.Haley.Reed.Sun...

3D
Patagonia.3D.Auf.den.Spuren....
Pirates.of.the.Caribbean.Sal...
Transformers.The.Last.Knight...
Faszination.Island.Das.Parad...
The.Final.Destination.4.3D.2...
The.Warriors.Gate.3D.2016.DU...
Wonder.Woman.3D.2017.MULTI.C...
Tutanchamun.3D.2012.COMPLETE...
Wonder.Woman.3D.HSBS.2017.Ge...
Wonder.Woman.3D.HOU.2017.Ger...
Pirates.of.the.Caribbean.Sal...
Pirates.of.the.Caribbean.Sal...
Die.Mumie.3D.2017.MULTi.COMP...
Wickie.auf.grosser.Fahrt.3D....
Die.Mumie.3D.HSBS.2017.Germa...

Old_Stuff
Chicago.Fire.S04.German.DL.1...
Chicago.Fire.S04.German.DL.7...
Conan.The.Barbarian.2011.Ger...
Conan.The.Barbarian.2011.Ger...
Die.Olsenbande.sieht.rot.197...
Olsenbande.steigt.aufs.Dach....
Malcolm.mittendrin.S05.Germa...
Malcolm.mittendrin.S04.Germa...
Life.of.Pi.2012.German.DTS.D...
Rest.Stop.Dont.Look.Back.UNC...
Koenig.der.Loewen.3D.German....
Schuesse.im.Dreiviertel.Takt...
Airwolf.S02.DUAL.BLURAY.COMP...
Don.2.The.King.is.Back.2011....
Prison.Break.S04.Complete.Ge...

Musik
The.Beatles.Sgt.Peppers.Lone...
The.Prometheus.Dolby.Atmos.E...
R.E.M.OUT.OF.TIME.25th.Anniv...
The.Rolling.Stones.GRRR.BR-A...
Mussorgsky.Bilder.einer.Auss...
Yes.-.The.Yes.Album.Bluray-A...
Carlos.Heredia.Gypsy.Flamenc...
SPES.2014.complete.Bluray.un...
Carlos.Santana.Collection.19...
Pink.Floyd.The.Endless.River...
The.Hyperion.Romantic.Piano....
Putumayo.113.CD.Flac.lossles...

Filme
Rumble.in.the.Bronx.1995.Ger...
Premutos.1997.German.DTS-HD....
Eine.Nacht.bei.McCools.Uncut...
Broken.Horses.2015.German.DL...
Baby.Mama.2008.German.1080p....
Die.Nacht.der.Jaeger.2011.Ge...
Die.Nacht.der.Woelfe.2011.Ge...
Jenseits.der.weissen.Linie.1...
American.Psycho.2000.German....
A.Nannys.Secret.2009.German....
Stephen.Kings.A.Good.Marriag...
In.the.Club.Stand.Up.Strip.D...
Die.Mannschaft.2014.German.1...
Die.Maske.runter.1952.German...
Die.Mamba.Gefaehrlich.lustig...
Fear.The.Walking.Dead.S03.CO...
Der.Schakal.1997.DUAL.COMPLE...
Outlander.S03.German.DD51.DL...
Outlander.S03.German.DD51.DL...
Die.Simpsons.S28.GERMAN.DUBB...
Die.Simpsons.S28.GERMAN.DUBB...
Bones.Die.Knochenjaegerin.S1...
Sleepy.Hollow.S04.GERMAN.DUB...
Colony.S01.GERMAN.DUBBED.720...

 
 
Die.Mumie.3D.HOU.2017.German.DL.1080p.BluRay.x264-COiNCiDENCE
Jahr: 2017
Genre: Action | Abenteuer | Fantasy
Sprache: Deutsch AC3 | Englisch AC3
Laufzeit: 1h 50mn
Bitrate: 11.3 Mbps
Format: MKV
Größe: 8.72 GiB
Release:

Beschreibung:

Vor 2.000 Jahren wurde Ahmanet (Sofia Boutella) tief unter der Erde weggesperrt – aus gutem Grund! Denn wie Expertin Jenny Halsey (Annabelle Wallis) aus Hieroglyphen entziffert, war Ahmanet als Anwärterin auf den Königsthron zu machtgierig und böse. Durch Mumifizierung und eine meterdicke Sandschicht sollte die Welt vor der Macht der Geschassten geschützt werden, doch nun ist die Mumie erwacht. Ahmanet bahnt sich den Weg aus ihrem düsteren Grab hinein in unsere Gegenwart, in der es am Abenteurer Nick Morton (Tom Cruise) ist, Unheil von der gesamten Menschheit fernzuhalten. Die Tipps von Dr. Henry Jekyll (Russell Crowe) im Ohr nimmt Nick den Kampf auf. Über die Jahrhunderte hinweg hat sich in der Mumie unermessliche Wut und Bosheit angestaut – jetzt hat sie Durst nach Rache…



Unique ID                                : 206971292354344796056738873830188085486 (0x9BB53890A99EB3AB9853ACEA759170EE)
Complete name                            : coincidence-diemumie-3dhou.mkv
Format                                   : Matroska
Format version                           : Version 4 / Version 2
File size                                : 8.72 GiB
Duration                                 : 1h 50mn
Overall bit rate                         : 11.3 Mbps
Encoded date                             : UTC 2017-09-17 10:51:23
Writing application                      : mkvmerge v8.3.0 ('Over the Horizon') 64bit
Writing library                          : libebml v1.3.1 + libmatroska v1.4.2
DURATION                                 : 00:56:39.385000000
NUMBER_OF_FRAMES                         : 22
NUMBER_OF_BYTES                          : 33541
_STATISTICS_WRITING_APP                  : mkvmerge v8.3.0 ('Over the Horizon') 64bit
_STATISTICS_WRITING_DATE_UTC             : 2017-09-17 10:51:23
_STATISTICS_TAGS                         : BPS DURATION NUMBER_OF_FRAMES NUMBER_OF_BYTES

Video
ID                                       : 1
Format                                   : AVC
Format/Info                              : Advanced Video Codec
Format profile                           : High@L4.1
Format settings, CABAC                   : Yes
Format settings, ReFrames                : 4 frames
Codec ID                                 : V_MPEG4/ISO/AVC
Duration                                 : 1h 50mn
Bit rate                                 : 10.1 Mbps
Width                                    : 1 920 pixels
Height                                   : 1 080 pixels
Display aspect ratio                     : 16:9
Frame rate mode                          : Constant
Frame rate                               : 23.976 fps
Color space                              : YUV
Chroma subsampling                       : 4:2:0
Bit depth                                : 8 bits
Scan type                                : Progressive
Bits/(Pixel*Frame)                       : 0.204
Stream size                              : 7.62 GiB (87%)
Writing library                          : x264 core 152 r2851 ba24899
Encoding settings                        : cabac=1 / ref=4 / deblock=1:-1:-1 / analyse=0x3:0x113 / me=umh / subme=10 / psy=1 / psy_rd=1.00:0.00 / mixed_ref=1 / me_range=16 / chroma_me=1 / trellis=2 / 8x8dct=1 / cqm=0 / deadzone=21,11 / fast_pskip=0 / chroma_qp_offset=-2 / threads=34 / lookahead_threads=2 / sliced_threads=0 / nr=0 / decimate=1 / interlaced=0 / bluray_compat=0 / constrained_intra=0 / bframes=5 / b_pyramid=2 / b_adapt=1 / b_bias=0 / direct=3 / weightb=1 / open_gop=0 / weightp=1 / keyint=250 / keyint_min=23 / scenecut=40 / intra_refresh=0 / rc_lookahead=40 / rc=2pass / mbtree=1 / bitrate=10130 / ratetol=1.0 / qcomp=0.60 / qpmin=0 / qpmax=69 / qpstep=4 / cplxblur=20.0 / qblur=0.5 / ip_ratio=1.40 / aq=1:1.00
Language                                 : English
Default                                  : Yes
Forced                                   : No
DURATION                                 : 01:50:07.268000000
NUMBER_OF_FRAMES                         : 158416
NUMBER_OF_BYTES                          : 8360981646
_STATISTICS_WRITING_APP                  : mkvmerge v8.3.0 ('Over the Horizon') 64bit
_STATISTICS_WRITING_DATE_UTC             : 2017-09-17 10:51:23
_STATISTICS_TAGS                         : BPS DURATION NUMBER_OF_FRAMES NUMBER_OF_BYTES

Audio #1
ID                                       : 2
Format                                   : AC-3
Format/Info                              : Audio Coding 3
Mode extension                           : CM (complete main)
Format settings, Endianness              : Big
Codec ID                                 : A_AC3
Duration                                 : 1h 50mn
Bit rate mode                            : Constant
Bit rate                                 : 576 Kbps
Channel(s)                               : 6 channels
Channel positions                        : Front: L C R, Side: L R, LFE
Sampling rate                            : 48.0 KHz
Bit depth                                : 16 bits
Compression mode                         : Lossy
Stream size                              : 454 MiB (5%)
Language                                 : German
Default                                  : Yes
Forced                                   : No

Audio #2
ID                                       : 3
Format                                   : AC-3
Format/Info                              : Audio Coding 3
Mode extension                           : CM (complete main)
Format settings, Endianness              : Big
Codec ID                                 : A_AC3
Duration                                 : 1h 50mn
Bit rate mode                            : Constant
Bit rate                                 : 640 Kbps
Channel(s)                               : 6 channels
Channel positions                        : Front: L C R, Side: L R, LFE
Sampling rate                            : 48.0 KHz
Bit depth                                : 16 bits
Compression mode                         : Lossy
Stream size                              : 504 MiB (6%)
Language                                 : English
Default                                  : No
Forced                                   : No

Text #1
ID                                       : 4
Format                                   : VobSub
Muxing mode                              : zlib
Codec ID                                 : S_VOBSUB
Codec ID/Info                            : The same subtitle format used on DVDs
Title                                    : German-Forced
Language                                 : German
Default                                  : Yes
Forced                                   : Yes

Text #2
ID                                       : 5
Format                                   : VobSub
Muxing mode                              : zlib
Codec ID                                 : S_VOBSUB
Codec ID/Info                            : The same subtitle format used on DVDs
Title                                    : English-Forced
Language                                 : English
Default                                  : No
Forced                                   : No


Download:
Share Online | Rapidgator.net Share Online | Rapidgator.netShare Online | Rapidgator.netShare Online | Rapidgator.net
 

Kommentare