Filmwünsche können bei uns im Forum abgegeben werden

Wir Speichern Nicht




 
 
 
Top Releases
Die.glorreichen.Sieben.2016....
Kingsman.The.Secret.Service....
The.Revenant.Der.Rueckkehrer...
Creed.Rockys.Legacy.2015.MUL...
Bigfoot.Junior.2017.GERMAN.1...
Fast.and.Furious.6.2013.Germ...
Joy.Alles.ausser.gewoehnlich...
Bigfoot.Junior.2017.GERMAN.C...
Tulpenfieber.2017.DUAL.COMPL...
Maze.Runner.Die.Auserwaehlte...

Cinedubs
Kingsman.The.Golden.Circle.2...
Kingsman.The.Golden.Circle.2...
Kingsman.The.Golden.Circle.2...
Flatliners.2017.German.AC3MD...
Flatliners.2017.German.AC3MD...
Schneemann.German.DL.AC3.Dub...
ES.2017.German.DL.AC3.Dubbed...
The.Lego.Ninjago.Movie.2017....
The.Lego.Ninjago.Movie.2017....
Mother.German.DL.AC3.Dubbed....

Neuerscheinungen 2016-17
Die.Halbstarken.1956.GERMAN....
Der.letzte.Mohikaner.1965.GE...
Die.Brut.des.Boesen.1979.COM...
Neon.Maniacs.1986.COMPLETE.B...
Peelers.2016.MULTI.COMPLETE....
Dracula.1958.DUAL.COMPLETE.B...
6.Below.Verschollen.im.Schne...
Dolans.Cadillac.2009.DUAL.CO...
Boehse.Onkelz.Memento.Gegen....
DAS.FUENFTE.ELEMENT.1997.4k....

XXX
Girlsoutwest.17.12.03.Amber....
LethalHardcore.Creeping.Tom....
MetArt.17.12.10.Maja.B.Sensu...
ImmoralLive.17.12.12.Mila.Mi...
IKnowThatGirl.17.12.12.Ella....
FTVMilfs.17.12.12.Reagan.Fox...
Girlsoutwest.17.12.04.Zazi.X...
MetArtX.17.12.10.Patritcy.A....
MommyGotBoobs.17.12.12.Merce...
MilfHunter.17.12.11.Jessie.J...
Girlsoutwest.17.12.05.Darth....
GirlsWay.17.12.11.Charlotte....
Girlsoutwest.17.12.10.Ray.Tr...
FTVGirls.17.12.12.Sophie.Har...
InTheCrack.E1354.Lulu.Love.3...
FTVGirls.17.12.12.Sophie.Har...
Lesbea.17.12.10.Amirah.Adara...
HollyRandall.17.12.12.Val.Do...
AllGirlMassage.17.12.11.Cart...
NubileFilms.17.12.12.Paula.A...

3D
Bigfoot.Junior.3D.2017.GERMA...
Bigfoot.Junior.3D.2017.Germa...
Bigfoot.Junior.3D.2017.Germa...
El.Americano.Kleiner.Superhe...
El.Americano.Kleiner.Superhe...
Walhalla.Rising.3D.2009.Germ...
Spider.Man.Homecoming.3D.Ger...
Valerian.Die.Stadt.der.tause...
Valerian.Die.Stadt.der.tause...
Valerian.Die.Stadt.der.tause...
Valerian.Die.Stadt.der.tause...
Warcraft.The.Beginning.3D.HS...
Transformers.The.Last.Knight...
Warcraft.The.Beginning.3D.HO...
Die.Schneekoenigin.3.Feuer.u...

Old_Stuff
American.Sniper.2014.MULTi.C...
Hana-bi.Feuerblume.1997.Germ...
Memphis.Belle.1990.German.DL...
Im.Schatten.des.Mondes.Germa...
Tomb.Raider.2001.DUAL.COMPLE...
Tomb.Raider.Die.Wiege.des.Le...
Party.Animals.3.German.AC3.7...
The.Rocky.Horror.Picture.Sho...
Die.Fliege.1986.German.DTS.1...
Mimic.2.2001.German.DD5.1D.D...
The.Tournament.UNCUT.2009.Ge...
Dr.House.S08.German.720p.Blu...
Dr.House.S07.German.720p.Blu...
Dr.House.S06.German.720p.Blu...
Dr.House.S05.German.720p.Blu...

Musik
Remote.Galaxy.by.Flint.Juven...
Trondheim.Solistene.Souvenir...
The.Beatles.Sgt.Peppers.Lone...
The.Prometheus.Dolby.Atmos.E...
R.E.M.OUT.OF.TIME.25th.Anniv...
The.Rolling.Stones.GRRR.BR-A...
Mussorgsky.Bilder.einer.Auss...
Yes.-.The.Yes.Album.Bluray-A...
Carlos.Heredia.Gypsy.Flamenc...
SPES.2014.complete.Bluray.un...
Carlos.Santana.Collection.19...
Pink.Floyd.The.Endless.River...
The.Hyperion.Romantic.Piano....
Putumayo.113.CD.Flac.lossles...
UFO.Let.It.Roll.Limited.Edit...

Filme
Die.letzte.Nacht.der.Titanic...
The.Stepfather.1987.COMPLETE...
The.100.S04.GERMAN.DUBBED.DL...
Return.of.the.Killershrews.U...
Revengers.1972.German.DL.108...
Out.of.the.Dark.2014.German....
Die.Kampfmaschine.1974.Germa...
Safe.House.S02D01.DUAL.COMPL...
Maze.Runner.Die.Auserwaehlte...
Poltergeist.3.Die.dunkle.Sei...
Poltergeist.3.Die.dunkle.Sei...
Violette.2013.German.1080p.B...
The.Lunchbox.2013.German.DL....
The.Veteran.2011.German.DL.1...
Saint.2010.German.1080p.BluR...
Saint.2010.German.DTS-HD.DL....
Der.rosarote.Panther.-.The.P...
El.Chapo.S02.COMPLETE.German...
Paul.2011.UNRATED.German.DTS...
Bunny.und.sein.Killerding.20...
The.Hollow.Crown.S02D01.DUAL...
Der.Rasenmaehermann.4K.Rem.T...
Die.Zeitritter.Les.visiteurs...
Game.of.thrones.s07d01-4.201...

 
 
Starship.Troopers.Traitor.of.Mars.2017.German.720p.BluRay.x264-MOViEiT
Jahr: 2017
Genre: Animation, Action
Sprache: Deutsch DTS
Laufzeit: 1h 27mn
Bitrate: 5 343 Kbps
Format: MKV
Größe: 3.27 GiB
Release:

Beschreibung:
20 Jahre ist es mittlerweile her, seit General Johnny Rico (Stimme im Original: Casper Van Dien) der Mobilen Infanterie beigetreten ist und sich zunächst als gewöhnlicher Soldat seine Sporen verdiente. Nach heftigen Gefechten und Verwundungen stieg er unter der Führung von seinem ehemaligen Lehrer Rasczak auf und nahm bei seinem Tod dessen Position ein. Heute ist Rico ein erfahrender Veteran, der scheinbar alles erlebt hat auf dem Schlachtfeld – oder doch nicht? Vor den ekligen und todbringenden Bugs hat die Menschheit jedenfalls noch keine Ruhe gefunden und nun haben die überdimensionalen Krabbelviecher auch noch eine Satellitenstation auf dem Mars eingenommen. Rico und eine Gruppe junger Rekruten werden auf den roten Planeten geschickt, um ihn von dem Bug-Befall zu säubern. Und überraschenderweise trifft Rico bei seiner Mission auf eine alte Bekannte: Dizzy Flores (Dina Meyer)…


Unique ID                                : 184358707706290876823346935505957353610 (0x8AB23210BEB6456DBF4D0B39088AF88A)
Complete name                            : mi-starshiptrooperstraitor-720p.mkv
Format                                   : Matroska
Format version                           : Version 4 / Version 2
File size                                : 3.27 GiB
Duration                                 : 1h 27mn
Overall bit rate                         : 5 343 Kbps
Encoded date                             : UTC 2017-09-22 17:43:18
Writing application                      : mkvmerge v9.5.0 ('Quiet Fire') 64bit
Writing library                          : libebml v1.3.4 + libmatroska v1.4.5
DURATION                                 : 01:21:59.206000000
NUMBER_OF_FRAMES                         : 18
NUMBER_OF_BYTES                          : 583
_STATISTICS_WRITING_APP                  : mkvmerge v9.5.0 ('Quiet Fire') 64bit
_STATISTICS_WRITING_DATE_UTC             : 2017-09-22 17:43:18
_STATISTICS_TAGS                         : BPS DURATION NUMBER_OF_FRAMES NUMBER_OF_BYTES

Video
ID                                       : 1
Format                                   : AVC
Format/Info                              : Advanced Video Codec
Format profile                           : High@L4.1
Format settings, CABAC                   : Yes
Format settings, ReFrames                : 5 frames
Codec ID                                 : V_MPEG4/ISO/AVC
Duration                                 : 1h 27mn
Bit rate                                 : 3 728 Kbps
Width                                    : 1 280 pixels
Height                                   : 720 pixels
Display aspect ratio                     : 16:9
Frame rate mode                          : Constant
Frame rate                               : 23.976 fps
Color space                              : YUV
Chroma subsampling                       : 4:2:0
Bit depth                                : 8 bits
Scan type                                : Progressive
Bits/(Pixel*Frame)                       : 0.169
Stream size                              : 2.28 GiB (70%)
Writing library                          : x264 core 152 r2851 ba24899
Encoding settings                        : cabac=1 / ref=5 / deblock=1:-1:-1 / analyse=0x3:0x113 / me=umh / subme=7 / psy=1 / psy_rd=1.00:0.00 / mixed_ref=1 / me_range=16 / chroma_me=1 / trellis=1 / 8x8dct=1 / cqm=0 / deadzone=21,11 / fast_pskip=0 / chroma_qp_offset=-2 / threads=12 / lookahead_threads=2 / sliced_threads=0 / nr=0 / decimate=1 / interlaced=0 / bluray_compat=0 / constrained_intra=0 / bframes=3 / b_pyramid=2 / b_adapt=1 / b_bias=0 / direct=3 / weightb=1 / open_gop=0 / weightp=2 / keyint=250 / keyint_min=23 / scenecut=40 / intra_refresh=0 / rc_lookahead=40 / rc=crf / mbtree=1 / crf=20.0 / qcomp=0.60 / qpmin=0 / qpmax=69 / qpstep=4 / ip_ratio=1.40 / aq=1:1.00
Default                                  : Yes
Forced                                   : No

Audio
ID                                       : 2
Format                                   : DTS
Format/Info                              : Digital Theater Systems
Mode                                     : 16
Format settings, Endianness              : Big
Codec ID                                 : A_DTS
Duration                                 : 1h 27mn
Bit rate mode                            : Constant
Bit rate                                 : 1 509 Kbps
Channel(s)                               : 6 channels
Channel positions                        : Front: L C R, Side: L R, LFE
Sampling rate                            : 48.0 KHz
Bit depth                                : 24 bits
Compression mode                         : Lossy
Stream size                              : 947 MiB (28%)
Language                                 : German
Default                                  : Yes
Forced                                   : No

Text
ID                                       : 3
Format                                   : UTF-8
Codec ID                                 : S_TEXT/UTF8
Codec ID/Info                            : UTF-8 Plain Text
Language                                 : German
Default                                  : Yes
Forced                                   : Yes


Download:
Share Online | Rapidgator.net Share Online | Rapidgator.netShare Online | Rapidgator.netShare Online | Rapidgator.net
 

Kommentare