SUPPORT HD-AREA

Filmwünsche können bei uns im Forum abgegeben werden

Wir Speichern Nicht




 
 
 
Top Releases
Sully.2016.German.Dubbed.Atm...
The.Autopsy.of.Jane.Doe.2016...
The.Autopsy.of.Jane.Doe.2016...
Miles.Ahead.2015.German.1080...
The.Autopsy.of.Jane.Doe.2016...
Dark.Web.Kontrolle.ist.eine....
Born.to.Be.Blue.2015.German....
Dark.Web.Kontrolle.ist.eine....
Ghost.in.the.Shell.The.New.M...
Ghost.in.the.Shell.The.New.M...

Cinedubs
Casino.Undercover.2017.Germa...
Casino.Undercover.2017.Germa...
What.Happened.to.Monday.2017...
What.Happened.to.Monday.2017...
Planet.der.Affen.Survival.20...
Planet.der.Affen.Survival.20...
Cars.3.2017.GERMAN.DL.MD.108...
Cars.3.2017.GERMAN.DL.MD.720...
Atomic.Blonde.German.AC3.Dub...
Atomic.Blonde.German.AC3.Dub...

Neuerscheinungen 2016-17
Maschinenland.Mankind.Down.2...
Maschinenland.Mankind.Down.2...
Maschinenland.Mankind.Down.2...
Mein.neues.bestes.Stueck.Ger...
Mein.neues.bestes.Stueck.Ger...
USS.Indianapolis.Men.of.Cour...
Ueberflieger.German.DL.720p....
Ueberflieger.German.DL.1080p...
Girls.United.Der.grosse.Show...
Girls.United.Der.grosse.Show...

XXX
ATKGirlfriends.17.10.12.Elen...
AussiePOV.17.03.23.Sierra.Kn...
Analized.17.10.16.Sarah.Vand...
BangBus.17.10.11.Sloan.Harpe...
1By-Day.17.10.11.Isabella.Ch...
AllOver30.17.10.11.Sunny.XXX...
AussiePOV.17.04.06.Contessa....
AllInternal.17.10.12.Rebecca...
Analyzed.Teens.XXX.1080p.WEB...
BadDaddyPOV.17.10.13.Alexis....
AussiePOV.17.03.02.Maddison....
Analized.17.10.11.Dahlia.Sky...
BoobDay.17.10.13.Sienna.Day....
BLACKED.17.10.12.Evelin.Ston...
21Naturals.17.10.15.Amirah.A...
Bang.Europe.57.XXX.1080p.WEB...
AllGirlMassage.17.10.16.Bret...
BoundGangBangs.17.10.09.Mari...
BigNaturals.17.10.11.Anya.Iv...
PropertySex.17.10.06.Adriana...

3D
Patagonia.3D.Auf.den.Spuren....
Pirates.of.the.Caribbean.Sal...
Transformers.The.Last.Knight...
Faszination.Island.Das.Parad...
The.Final.Destination.4.3D.2...
The.Warriors.Gate.3D.2016.DU...
Wonder.Woman.3D.2017.MULTI.C...
Tutanchamun.3D.2012.COMPLETE...
Wonder.Woman.3D.HSBS.2017.Ge...
Wonder.Woman.3D.HOU.2017.Ger...
Pirates.of.the.Caribbean.Sal...
Pirates.of.the.Caribbean.Sal...
Die.Mumie.3D.2017.MULTi.COMP...
Wickie.auf.grosser.Fahrt.3D....
Die.Mumie.3D.HSBS.2017.Germa...

Old_Stuff
Die.Olsenbande.sieht.rot.197...
Olsenbande.steigt.aufs.Dach....
Malcolm.mittendrin.S05.Germa...
Malcolm.mittendrin.S04.Germa...
Life.of.Pi.2012.German.DTS.D...
Rest.Stop.Dont.Look.Back.UNC...
Koenig.der.Loewen.3D.German....
Schuesse.im.Dreiviertel.Takt...
Airwolf.S02.DUAL.BLURAY.COMP...
Don.2.The.King.is.Back.2011....
Prison.Break.S04.Complete.Ge...
Prison.Break.S03.Complete.Ge...
Tuerkisch.fuer.Anfaenger.S03...
Geraubte.Kuesse.1968.DUAL.CO...
Prison.Break.S02.COMPLETE.20...

Musik
The.Beatles.Sgt.Peppers.Lone...
The.Prometheus.Dolby.Atmos.E...
R.E.M.OUT.OF.TIME.25th.Anniv...
The.Rolling.Stones.GRRR.BR-A...
Mussorgsky.Bilder.einer.Auss...
Yes.-.The.Yes.Album.Bluray-A...
Carlos.Heredia.Gypsy.Flamenc...
SPES.2014.complete.Bluray.un...
Carlos.Santana.Collection.19...
Pink.Floyd.The.Endless.River...
The.Hyperion.Romantic.Piano....
Putumayo.113.CD.Flac.lossles...

Filme
Garten.des.Boesen.Garden.of....
Polina.2016.DUAL.COMPLETE.BL...
Alles.Unter.Kontrolle.2016.D...
Pettersson.und.Findus.Kleine...
Die.Farbe.Lila.1985.German.D...
Die.Kroete.1978.German.DL.10...
Der.Superfighter.AKA.Project...
Der.Superfighter.AKA.Project...
Interview.mit.eine.Vampir.19...
Prison.Break.S05.COMPLETE.Ge...
Berlin.Station.S02.German.10...
Berlin.Station.S02.German.72...
The.Quest.Die.Serie.S03.Germ...
The.Quest.Die.Serie.S03.Germ...
The.Deuce.S01.German.DL.DUBB...
The.Deuce.S01.German.DL.DUBB...
Designated.Survivor.S02.Germ...
Designated.Survivor.S02.Germ...
Fear.The.Walking.Dead.S03.CO...
Captain.Underpants.The.First...
2.Broke.Girls.S06.GERMAN.DUB...
2.Broke.Girls.S06.GERMAN.DUB...
Kevin.Can.Wait.S02.German.10...
Kevin.Can.Wait.S02.German.72...

 
 
Subterranea.2015.German.DL.1080p.BluRay.x264-SPiCY
Jahr: 2015
Genre: Drama
Sprache: Deutsch DTS | Englisch DTS
Laufzeit: 1h 38mn
Bitrate: 5 979 Kbps
Format: MKV
Größe: 4.13 GiB
Release:

Beschreibung:

Ein junger Mann, der sein ganzes Leben in einer dunklen Zelle verbracht hat, wird in die Gesellschaft entlassen und muss sich zurecht finden. Mit einer Kickstarter-Kampagne finanziertes Drama mit Horroreinschlag



General
Unique ID                                : 218041557498936305756976215017305127259 (0xA40946C6CA62569BBFED33E29ACFB95B)
Complete name                            : spy-subterranea-1080p.mkv
Format                                   : Matroska
Format version                           : Version 4 / Version 2
File size                                : 4.13 GiB
Duration                                 : 1h 38mn
Overall bit rate                         : 5 979 Kbps
Encoded date                             : UTC 2017-09-22 16:09:03
Writing application                      : mkvmerge v9.5.0 ('Quiet Fire') 64bit
Writing library                          : libebml v1.3.4 + libmatroska v1.4.5
DURATION                                 : 01:38:48.022000000
NUMBER_OF_FRAMES                         : 555752
NUMBER_OF_BYTES                          : 1118173024
_STATISTICS_WRITING_APP                  : mkvmerge v9.5.0 ('Quiet Fire') 64bit
_STATISTICS_WRITING_DATE_UTC             : 2017-09-22 16:09:03
_STATISTICS_TAGS                         : BPS DURATION NUMBER_OF_FRAMES NUMBER_OF_BYTES

Video
ID                                       : 1
Format                                   : AVC
Format/Info                              : Advanced Video Codec
Format profile                           : High@L4.1
Format settings, CABAC                   : Yes
Format settings, ReFrames                : 5 frames
Codec ID                                 : V_MPEG4/ISO/AVC
Duration                                 : 1h 38mn
Bit rate                                 : 2 842 Kbps
Width                                    : 1 920 pixels
Height                                   : 808 pixels
Display aspect ratio                     : 2.40:1
Frame rate mode                          : Constant
Frame rate                               : 23.976 fps
Color space                              : YUV
Chroma subsampling                       : 4:2:0
Bit depth                                : 8 bits
Scan type                                : Progressive
Bits/(Pixel*Frame)                       : 0.076
Stream size                              : 1.96 GiB (48%)
Writing library                          : x264 core 152 r2851 ba24899
Encoding settings                        : cabac=1 / ref=5 / deblock=1:-1:-1 / analyse=0x3:0x113 / me=umh / subme=7 / psy=1 / psy_rd=1.00:0.00 / mixed_ref=1 / me_range=16 / chroma_me=1 / trellis=1 / 8x8dct=1 / cqm=0 / deadzone=21,11 / fast_pskip=0 / chroma_qp_offset=-2 / threads=12 / lookahead_threads=2 / sliced_threads=0 / nr=0 / decimate=1 / interlaced=0 / bluray_compat=0 / constrained_intra=0 / bframes=3 / b_pyramid=2 / b_adapt=1 / b_bias=0 / direct=3 / weightb=1 / open_gop=0 / weightp=2 / keyint=250 / keyint_min=23 / scenecut=40 / intra_refresh=0 / rc_lookahead=40 / rc=crf / mbtree=1 / crf=20.0 / qcomp=0.60 / qpmin=0 / qpmax=69 / qpstep=4 / ip_ratio=1.40 / aq=1:1.00
Default                                  : Yes
Forced                                   : No

Audio #1
ID                                       : 2
Format                                   : DTS
Format/Info                              : Digital Theater Systems
Mode                                     : 16
Format settings, Endianness              : Big
Codec ID                                 : A_DTS
Duration                                 : 1h 38mn
Bit rate mode                            : Constant
Bit rate                                 : 1 509 Kbps
Channel(s)                               : 6 channels
Channel positions                        : Front: L C R, Side: L R, LFE
Sampling rate                            : 48.0 KHz
Bit depth                                : 24 bits
Compression mode                         : Lossy
Stream size                              : 1.04 GiB (25%)
Language                                 : German
Default                                  : Yes
Forced                                   : No

Audio #2
ID                                       : 3
Format                                   : DTS
Format/Info                              : Digital Theater Systems
Mode                                     : 16
Format settings, Endianness              : Big
Codec ID                                 : A_DTS
Duration                                 : 1h 38mn
Bit rate mode                            : Constant
Bit rate                                 : 1 509 Kbps
Channel(s)                               : 2 channels
Channel positions                        : Front: L R
Sampling rate                            : 48.0 KHz
Bit depth                                : 24 bits
Compression mode                         : Lossy
Stream size                              : 1.04 GiB (25%)
Language                                 : English
Default                                  : No
Forced                                   : No


Download:
Share Online | Rapidgator.net Share Online | Rapidgator.netShare Online | Rapidgator.netShare Online | Rapidgator.net
 

Kommentare