Filmwünsche können bei uns im Forum abgegeben werden

Wir Speichern Nicht




 
 
 
Top Releases
Der.Stern.von.Indien.2017.Ge...
Der.Stern.von.Indien.2017.Ge...
Dunkirk.2017.German.DL.1080p...
Dunkirk.2017.IMAX.German.DTS...
Dunkirk.2017.German.720p.Blu...
Dalida.2016.GERMAN.720p.BluR...
Dalida.2016.GERMAN.1080p.Blu...
Dalida.2016.DUAL.COMPLETE.BL...
Mein.fast.perfekter.Vater.Th...
Die.Tribute.von.Panem.Catchi...

Cinedubs
Flatliners.2017.German.AC3MD...
Flatliners.2017.German.AC3MD...
Dunkirk.2017.IMAX.German.AC3...
Dunkirk.2017.IMAX.German.AC3...
Dunkirk.2017.IMAX.German.AC3...
Schneemann.German.DL.AC3.Dub...
ES.2017.German.DL.AC3.Dubbed...
Dunkirk.2017.German.AC3MD.DL...
The.Lego.Ninjago.Movie.2017....
The.Lego.Ninjago.Movie.2017....

Neuerscheinungen 2016-17
The.Kelly.Family.We.Got.Love...
Escape.Room.2017.German.DL.1...
The.Holly.Kane.Experiment.20...
Iron.Man.2.4k.2010.multi.com...
Escape.Room.2017.German.DL.1...
Escape.Room.2017.German.720p...
Max.Agent.auf.vier.Pfoten.20...
Max.Agent.auf.vier.Pfoten.20...
Max.Agent.auf.vier.Pfoten.20...
Leatherface.2017.German.720p...

XXX
UltraFilms.17.11.09.Eveline....
ShemalesFromHell.17.09.08.Er...
SisLovesMe.17.11.28.Sadie.Bl...
RealAgent.17.11.01.Emily.Arc...
SexArt.17.11.26.Myiuki.Son.S...
UltraFilms.17.11.25.Tee.Nka....
Sexflexvideo.17.11.30.Redhea...
VintageFlash.17.11.24.Sophia...
ScrewBox.17.11.26.Jennifer.J...
ShemalesFromHell.17.08.27.Ad...
ShemalesFromHell.17.09.01.Je...
Sexflexvideo.17.12.02.Sophia...
RylskyArt.17.12.01.Astrud.Vi...
X-Art.17.12.01.Nicole.Black....
Twistys.17.11.11.Blair.Summe...
Sexflexvideo.17.12.02.Victor...
SeducedByACougar.17.11.27.Sy...
Sinslife.17.11.23.Throwback....
SelfieSuck.17.11.02.Daniela....
Shoplyfter.17.11.29.Alyce.An...

3D
Walhalla.Rising.3D.2009.Germ...
Spider.Man.Homecoming.3D.Ger...
Valerian.Die.Stadt.der.tause...
Valerian.Die.Stadt.der.tause...
Valerian.Die.Stadt.der.tause...
Valerian.Die.Stadt.der.tause...
Warcraft.The.Beginning.3D.HS...
Transformers.The.Last.Knight...
Warcraft.The.Beginning.3D.HO...
Die.Schneekoenigin.3.Feuer.u...
Die.Schneekoenigin.3.Feuer.u...
Terra.X.Dracula.-.Die.wahre....
Abenteuer.Safari.3D.Safari.P...
Die.Schneekoenigin.3.3D.2016...
Spider.Man.Homecoming.3D.201...

Old_Stuff
American.Sniper.2014.MULTi.C...
Hana-bi.Feuerblume.1997.Germ...
Memphis.Belle.1990.German.DL...
Im.Schatten.des.Mondes.Germa...
Tomb.Raider.2001.DUAL.COMPLE...
Tomb.Raider.Die.Wiege.des.Le...
Party.Animals.3.German.AC3.7...
The.Rocky.Horror.Picture.Sho...
Die.Fliege.1986.German.DTS.1...
Mimic.2.2001.German.DD5.1D.D...
The.Tournament.UNCUT.2009.Ge...
Dr.House.S08.German.720p.Blu...
Dr.House.S07.German.720p.Blu...
Dr.House.S06.German.720p.Blu...
Dr.House.S05.German.720p.Blu...

Musik
Remote.Galaxy.by.Flint.Juven...
Trondheim.Solistene.Souvenir...
The.Beatles.Sgt.Peppers.Lone...
The.Prometheus.Dolby.Atmos.E...
R.E.M.OUT.OF.TIME.25th.Anniv...
The.Rolling.Stones.GRRR.BR-A...
Mussorgsky.Bilder.einer.Auss...
Yes.-.The.Yes.Album.Bluray-A...
Carlos.Heredia.Gypsy.Flamenc...
SPES.2014.complete.Bluray.un...
Carlos.Santana.Collection.19...
Pink.Floyd.The.Endless.River...
The.Hyperion.Romantic.Piano....
Putumayo.113.CD.Flac.lossles...
UFO.Let.It.Roll.Limited.Edit...

Filme
Dolans.Cadillac.2009.German....
Dolans.Cadillac.2009.German....
The.Da.Vinci.Code.Sakrileg.4...
Miss.Marple.Moerder.Ahoi.-.M...
Mimesis.Night.of.the.Living....
Jagdszenen.aus.Niederbayern....
Game.of.thrones.s07d01-3.201...
Das.verrueckte.Familienfest....
Jumanji.1995.German.DL.1080p...
Doctor.Who.S10.German.DD51.S...
Doctor.Who.S10.German.DD51.S...
Manhunt.Unabomber.S01.COMPLE...
Manhunt.Unabomber.S01.COMPLE...
NCIS.S15.GERMAN.DUBBED.DL.72...
The.Librarians.S03.COMPLETE....
Starship.Troopers.1997.Germa...
Colors.Farben.der.Gewalt.UNR...
Das.Privatleben.des.Sherlock...
Twin.Dragons.1992.German.AC3...
Strike.One.2014.German.AC3.D...
The.Good.Fight.S01.GERMAN.DU...
187.Eine.toedliche.Zahl.1997...
Gib.dem.Affen.Zucker.1981.RE...
Gib.dem.Affen.Zucker.1981.RE...

 
 
Berlin.Syndrom.2017.German.DTS.DL.1080p.BluRay.x264-UNFIrED
Jahr: 2017
Genre: Thriller
Sprache: Deutsch DTS | Englisch DTS
Laufzeit: 1h 51mn
Bitrate: 4 488 Kbps
Format: MKV
Größe: 3.50 GiB
Release:

Beschreibung:
Die Australierin Clare (Teresa Palmer) macht als Backpackerin Urlaub in Berlin, wo sie den ebenso netten wie charmanten Englischlehrer Andi (Max Riemelt) kennenlernt. Zwischen den beiden sprühen die Funken und sie verabreden sich zu einem gemeinsamen Sightseeing-Trip durch die Stadt, der in einen heißen Flirt mündet. Doch nach einer romantischen Nacht gibt es für Clare ein unerfreuliches Erwachen: Andi liegt nicht neben ihr. Zunächst denkt die junge Frau, ihr Liebhaber von letzter Nacht habe einen Abgang gemacht, ohne sich zu verabschieden, doch schnell wird ihr klar, dass die Wahrheit noch viel unangenehmer ist: Andi hat sie in der Wohnung eingesperrt und er hat nicht vor, sie jemals wieder gehen zu lassen. Für Clare ist dies der Beginn eines nervenzerreißenden Horrortrips. Willkommen in Berlin!
x265


Unique ID                                : 191882155061388189475666133182583538185 (0x905B28A8998A1F48B19767EAA7AA0209)
Complete name                            : unfired-berlinsyndrom-x265.mkv
Format                                   : Matroska
Format version                           : Version 2
File size                                : 3.50 GiB
Duration                                 : 1h 51mn
Overall bit rate                         : 4 488 Kbps
Encoded date                             : UTC 2017-09-22 12:37:18
Writing application                      : mkvmerge v15.0.0 ('Duel with the Devil') 64-bit
Writing library                          : libebml v1.3.5 + libmatroska v1.4.5
DURATION                                 : 01:47:56.301000000
NUMBER_OF_FRAMES                         : 358
NUMBER_OF_BYTES                          : 1453469
_STATISTICS_WRITING_APP                  : mkvmerge v15.0.0 ('Duel with the Devil') 64-bit
_STATISTICS_WRITING_DATE_UTC             : 2017-09-22 12:37:18
_STATISTICS_TAGS                         : BPS DURATION NUMBER_OF_FRAMES NUMBER_OF_BYTES

Video
ID                                       : 1
Format                                   : HEVC
Format/Info                              : High Efficiency Video Coding
Format profile                           : Main@L4.0
Codec ID                                 : V_MPEGH/ISO/HEVC
Duration                                 : 1h 51mn
Bit rate                                 : 1 381 Kbps
Width                                    : 1 920 pixels
Height                                   : 804 pixels
Display aspect ratio                     : 2.40:1
Frame rate mode                          : Constant
Frame rate                               : 25.000 fps
Color space                              : YUV
Chroma subsampling                       : 4:2:0
Bit depth                                : 8 bits
Bits/(Pixel*Frame)                       : 0.036
Stream size                              : 1.08 GiB (31%)
Writing library                          : x265 2.5+2-18fa144d453e:[Windows][GCC 7.1.0][64 bit] 8bit+10bit+12bit
Encoding settings                        : cpuid=1050111 / frame-threads=3 / numa-pools=8 / wpp / no-pmode / no-pme / no-psnr / no-ssim / log-level=2 / input-csp=1 / input-res=1920x804 / interlace=0 / total-frames=167408 / level-idc=0 / high-tier=1 / uhd-bd=0 / ref=4 / no-allow-non-conformance / no-repeat-headers / annexb / no-aud / no-hrd / info / hash=0 / no-temporal-layers / open-gop / min-keyint=25 / keyint=250 / bframes=4 / b-adapt=2 / b-pyramid / bframe-bias=0 / rc-lookahead=25 / lookahead-slices=4 / scenecut=40 / no-intra-refresh / ctu=64 / min-cu-size=8 / rect / no-amp / max-tu-size=32 / tu-inter-depth=1 / tu-intra-depth=1 / limit-tu=0 / rdoq-level=2 / dynamic-rd=0.00 / no-ssim-rd / signhide / no-tskip / nr-intra=0 / nr-inter=0 / no-constrained-intra / strong-intra-smoothing / max-merge=3 / limit-refs=3 / limit-modes / me=3 / subme=3 / merange=57 / temporal-mvp / weightp / no-weightb / no-analyze-src-pics / deblock=0:0 / sao / no-sao-non-deblock / rd=4 / no-early-skip / rskip / no-fast-intra / no-tskip-fast / no-cu-lossless / no-b-intra / rdpenalty=0 / psy-rd=2.00 / psy-rdoq=1.00 / no-rd-refine / analysis-reuse-mode=0 / no-lossless / cbqpoffs=0 / crqpoffs=0 / rc=crf / crf=19.9 / qcomp=0.60 / qpstep=4 / stats-write=0 / stats-read=0 / ipratio=1.40 / pbratio=1.30 / aq-mode=1 / aq-strength=1.00 / cutree / zone-count=0 / no-strict-cbr / qg-size=32 / no-rc-grain / qpmax=69 / qpmin=0 / no-const-vbv / sar=1 / overscan=0 / videoformat=5 / range=0 / colorprim=2 / transfer=2 / colormatrix=2 / chromaloc=0 / display-window=0 / max-cll=0,0 / min-luma=0 / max-luma=255 / log2-max-poc-lsb=8 / vui-timing-info / vui-hrd-info / slices=1 / opt-qp-pps / opt-ref-list-length-pps / no-multi-pass-opt-rps / scenecut-bias=0.05 / no-opt-cu-delta-qp / no-aq-motion / no-hdr / no-hdr-opt / no-dhdr10-opt / analysis-reuse-level=5 / scale-factor=0 / refine-intra=0 / refine-inter=0 / refine-mv=0 / no-limit-sao / ctu-info=0
Default                                  : Yes
Forced                                   : No

Audio #1
ID                                       : 2
Format                                   : DTS
Format/Info                              : Digital Theater Systems
Mode                                     : 16
Format settings, Endianness              : Big
Codec ID                                 : A_DTS
Duration                                 : 1h 51mn
Bit rate mode                            : Constant
Bit rate                                 : 1 509 Kbps
Channel(s)                               : 6 channels
Channel positions                        : Front: L C R, Side: L R, LFE
Sampling rate                            : 48.0 KHz
Bit depth                                : 24 bits
Compression mode                         : Lossy
Stream size                              : 1.18 GiB (34%)
Language                                 : German
Default                                  : Yes
Forced                                   : No

Audio #2
ID                                       : 3
Format                                   : DTS
Format/Info                              : Digital Theater Systems
Mode                                     : 16
Format settings, Endianness              : Big
Codec ID                                 : A_DTS
Duration                                 : 1h 51mn
Bit rate mode                            : Constant
Bit rate                                 : 1 509 Kbps
Channel(s)                               : 6 channels
Channel positions                        : Front: L C R, Side: L R, LFE
Sampling rate                            : 48.0 KHz
Bit depth                                : 24 bits
Compression mode                         : Lossy
Stream size                              : 1.18 GiB (34%)
Language                                 : English
Default                                  : No
Forced                                   : No

Text #1
ID                                       : 4
Format                                   : UTF-8
Codec ID                                 : S_TEXT/UTF8
Codec ID/Info                            : UTF-8 Plain Text
Title                                    : forced
Language                                 : German
Default                                  : Yes
Forced                                   : Yes

Text #2
ID                                       : 5
Format                                   : VobSub
Muxing mode                              : zlib
Codec ID                                 : S_VOBSUB
Codec ID/Info                            : The same subtitle format used on DVDs
Title                                    : complete
Language                                 : German
Default                                  : No
Forced                                   : No


Download:
Share Online | Rapidgator.net Share Online | Rapidgator.netShare Online | Rapidgator.netShare Online | Rapidgator.net
 

Kommentare