SUPPORT HD-AREA

Filmwünsche können bei uns im Forum abgegeben werden

Wir Speichern Nicht




 
 
 
Top Releases
Sully.2016.German.Dubbed.Atm...
The.Autopsy.of.Jane.Doe.2016...
The.Autopsy.of.Jane.Doe.2016...
Miles.Ahead.2015.German.1080...
The.Autopsy.of.Jane.Doe.2016...
Dark.Web.Kontrolle.ist.eine....
Born.to.Be.Blue.2015.German....
Dark.Web.Kontrolle.ist.eine....
Ghost.in.the.Shell.The.New.M...
Ghost.in.the.Shell.The.New.M...

Cinedubs
Casino.Undercover.2017.Germa...
Casino.Undercover.2017.Germa...
What.Happened.to.Monday.2017...
What.Happened.to.Monday.2017...
Planet.der.Affen.Survival.20...
Planet.der.Affen.Survival.20...
Cars.3.2017.GERMAN.DL.MD.108...
Cars.3.2017.GERMAN.DL.MD.720...
Atomic.Blonde.German.AC3.Dub...
Atomic.Blonde.German.AC3.Dub...

Neuerscheinungen 2016-17
Maschinenland.Mankind.Down.2...
Maschinenland.Mankind.Down.2...
Maschinenland.Mankind.Down.2...
Mein.neues.bestes.Stueck.Ger...
Mein.neues.bestes.Stueck.Ger...
USS.Indianapolis.Men.of.Cour...
Ueberflieger.German.DL.720p....
Ueberflieger.German.DL.1080p...
Girls.United.Der.grosse.Show...
Girls.United.Der.grosse.Show...

XXX
BabyGotBoobs.17.10.13.Cassid...
ATKGirlfriends.17.10.12.Elen...
AussiePOV.17.03.23.Sierra.Kn...
Analized.17.10.16.Sarah.Vand...
BangBus.17.10.11.Sloan.Harpe...
1By-Day.17.10.11.Isabella.Ch...
AllOver30.17.10.11.Sunny.XXX...
AussiePOV.17.04.06.Contessa....
AllInternal.17.10.12.Rebecca...
Analyzed.Teens.XXX.1080p.WEB...
BadDaddyPOV.17.10.13.Alexis....
AussiePOV.17.03.02.Maddison....
Analized.17.10.11.Dahlia.Sky...
BoobDay.17.10.13.Sienna.Day....
BLACKED.17.10.12.Evelin.Ston...
21Naturals.17.10.15.Amirah.A...
Bang.Europe.57.XXX.1080p.WEB...
AllGirlMassage.17.10.16.Bret...
BoundGangBangs.17.10.09.Mari...
BigNaturals.17.10.11.Anya.Iv...

3D
Patagonia.3D.Auf.den.Spuren....
Pirates.of.the.Caribbean.Sal...
Transformers.The.Last.Knight...
Faszination.Island.Das.Parad...
The.Final.Destination.4.3D.2...
The.Warriors.Gate.3D.2016.DU...
Wonder.Woman.3D.2017.MULTI.C...
Tutanchamun.3D.2012.COMPLETE...
Wonder.Woman.3D.HSBS.2017.Ge...
Wonder.Woman.3D.HOU.2017.Ger...
Pirates.of.the.Caribbean.Sal...
Pirates.of.the.Caribbean.Sal...
Die.Mumie.3D.2017.MULTi.COMP...
Wickie.auf.grosser.Fahrt.3D....
Die.Mumie.3D.HSBS.2017.Germa...

Old_Stuff
Die.Olsenbande.sieht.rot.197...
Olsenbande.steigt.aufs.Dach....
Malcolm.mittendrin.S05.Germa...
Malcolm.mittendrin.S04.Germa...
Life.of.Pi.2012.German.DTS.D...
Rest.Stop.Dont.Look.Back.UNC...
Koenig.der.Loewen.3D.German....
Schuesse.im.Dreiviertel.Takt...
Airwolf.S02.DUAL.BLURAY.COMP...
Don.2.The.King.is.Back.2011....
Prison.Break.S04.Complete.Ge...
Prison.Break.S03.Complete.Ge...
Tuerkisch.fuer.Anfaenger.S03...
Geraubte.Kuesse.1968.DUAL.CO...
Prison.Break.S02.COMPLETE.20...

Musik
The.Beatles.Sgt.Peppers.Lone...
The.Prometheus.Dolby.Atmos.E...
R.E.M.OUT.OF.TIME.25th.Anniv...
The.Rolling.Stones.GRRR.BR-A...
Mussorgsky.Bilder.einer.Auss...
Yes.-.The.Yes.Album.Bluray-A...
Carlos.Heredia.Gypsy.Flamenc...
SPES.2014.complete.Bluray.un...
Carlos.Santana.Collection.19...
Pink.Floyd.The.Endless.River...
The.Hyperion.Romantic.Piano....
Putumayo.113.CD.Flac.lossles...

Filme
Garten.des.Boesen.Garden.of....
Polina.2016.DUAL.COMPLETE.BL...
Alles.Unter.Kontrolle.2016.D...
Pettersson.und.Findus.Kleine...
Die.Farbe.Lila.1985.German.D...
Die.Kroete.1978.German.DL.10...
Der.Superfighter.AKA.Project...
Der.Superfighter.AKA.Project...
Interview.mit.eine.Vampir.19...
Prison.Break.S05.COMPLETE.Ge...
Berlin.Station.S02.German.10...
Berlin.Station.S02.German.72...
The.Quest.Die.Serie.S03.Germ...
The.Quest.Die.Serie.S03.Germ...
The.Deuce.S01.German.DL.DUBB...
The.Deuce.S01.German.DL.DUBB...
Designated.Survivor.S02.Germ...
Designated.Survivor.S02.Germ...
Fear.The.Walking.Dead.S03.CO...
Captain.Underpants.The.First...
2.Broke.Girls.S06.GERMAN.DUB...
2.Broke.Girls.S06.GERMAN.DUB...
Kevin.Can.Wait.S02.German.10...
Kevin.Can.Wait.S02.German.72...

 
 
Victoria.Maenner.und.andere.Missgeschicke.German.DL.AC3D.720p.BluRay.x264-SPECTRE
Jahr: 2016
Genre: Komödie
Sprache: Deutsch AC3
Laufzeit: 1h 36mn
Bitrate: 6 716 Kbps
Format: MKV
Größe: 4.52 GiB
Release:

Beschreibung:

Victoria ist Anwältin in Paris, Ende 30, alleinerziehend, hat ein lockeres Sex-Leben und ist charmant-egozentrisch. Bei einer Hochzeit trifft sie ihren guten Freund Vincent sowie Sam, einen Klein-Dealer, den sie vor einiger Zeit verteidigt hat. Tags darauf steht Vincent unter Anklage wegen versuchten Mordes an seiner Freundin. Einziger Zeuge ist der Dalmatiner des Opfers. Widerwillig übernimmt Vcitoria seine Verteidigung. Als sie dann auch noch Sam als Au-Pair-Boy einstellt, nimmt das Chaos in Victorias Leben seinen Lauf.



General
Unique ID                                : 217842128664949887972230616217498969545 (0xA3E2DE2D05C0B7998E229E63DC8865C9)
Complete name                            : victoria.720p-spectre.mkv
Format                                   : Matroska
Format version                           : Version 4 / Version 2
File size                                : 4.52 GiB
Duration                                 : 1h 36mn
Overall bit rate                         : 6 716 Kbps
Encoded date                             : UTC 2017-09-22 17:12:15
Writing application                      : mkvmerge v8.0.0 ('Til The Day That I Die') 64bit
Writing library                          : libebml v1.3.1 + libmatroska v1.4.2
DURATION                                 : 01:36:21.696000000
NUMBER_OF_FRAMES                         : 180678
NUMBER_OF_BYTES                          : 161887488
_STATISTICS_WRITING_APP                  : mkvmerge v8.0.0 ('Til The Day That I Die') 64bit
_STATISTICS_WRITING_DATE_UTC             : 2017-09-22 17:12:15
_STATISTICS_TAGS                         : BPS DURATION NUMBER_OF_FRAMES NUMBER_OF_BYTES

Video
ID                                       : 1
Format                                   : AVC
Format/Info                              : Advanced Video Codec
Format profile                           : High@L4.1
Format settings, CABAC                   : Yes
Format settings, ReFrames                : 5 frames
Codec ID                                 : V_MPEG4/ISO/AVC
Duration                                 : 1h 36mn
Bit rate                                 : 4 998 Kbps
Width                                    : 1 280 pixels
Height                                   : 536 pixels
Display aspect ratio                     : 2.40:1
Frame rate mode                          : Constant
Frame rate                               : 23.976 fps
Color space                              : YUV
Chroma subsampling                       : 4:2:0
Bit depth                                : 8 bits
Scan type                                : Progressive
Bits/(Pixel*Frame)                       : 0.304
Stream size                              : 3.26 GiB (72%)
Title                                    : 720p
Writing library                          : x264 core 148 r2744 b97ae06
Encoding settings                        : cabac=1 / ref=5 / deblock=1:0:0 / analyse=0x3:0x113 / me=umh / subme=8 / psy=1 / psy_rd=1.00:0.00 / mixed_ref=1 / me_range=16 / chroma_me=1 / trellis=1 / 8x8dct=1 / cqm=0 / deadzone=21,11 / fast_pskip=1 / chroma_qp_offset=-2 / threads=17 / lookahead_threads=2 / sliced_threads=0 / nr=0 / decimate=1 / interlaced=0 / bluray_compat=0 / constrained_intra=0 / bframes=3 / b_pyramid=2 / b_adapt=2 / b_bias=0 / direct=3 / weightb=1 / open_gop=0 / weightp=2 / keyint=240 / keyint_min=24 / scenecut=40 / intra_refresh=0 / rc_lookahead=50 / rc=2pass / mbtree=1 / bitrate=4998 / ratetol=1.0 / qcomp=0.60 / qpmin=0 / qpmax=69 / qpstep=4 / cplxblur=20.0 / qblur=0.5 / ip_ratio=1.40 / aq=1:1.00
Language                                 : English
Default                                  : Yes
Forced                                   : Yes
DURATION                                 : 01:36:10.390000000
NUMBER_OF_FRAMES                         : 138351
NUMBER_OF_BYTES                          : 3601567010
_STATISTICS_WRITING_APP                  : mkvmerge v8.0.0 ('Til The Day That I Die') 64bit
_STATISTICS_WRITING_DATE_UTC             : 2017-09-22 17:12:15
_STATISTICS_TAGS                         : BPS DURATION NUMBER_OF_FRAMES NUMBER_OF_BYTES

Audio #1
ID                                       : 2
Format                                   : AC-3
Format/Info                              : Audio Coding 3
Mode extension                           : CM (complete main)
Format settings, Endianness              : Big
Codec ID                                 : A_AC3
Duration                                 : 1h 36mn
Bit rate mode                            : Constant
Bit rate                                 : 224 Kbps
Channel(s)                               : 2 channels
Channel positions                        : Front: L R
Sampling rate                            : 48.0 KHz
Bit depth                                : 16 bits
Compression mode                         : Lossy
Stream size                              : 154 MiB (3%)
Language                                 : German
Default                                  : Yes
Forced                                   : Yes

Audio #2
ID                                       : 3
Format                                   : DTS
Format/Info                              : Digital Theater Systems
Mode                                     : 16
Format settings, Endianness              : Big
Codec ID                                 : A_DTS
Duration                                 : 1h 36mn
Bit rate mode                            : Constant
Bit rate                                 : 1 509 Kbps
Channel(s)                               : 6 channels
Channel positions                        : Front: L C R, Side: L R, LFE
Sampling rate                            : 48.0 KHz
Bit depth                                : 24 bits
Compression mode                         : Lossy
Stream size                              : 1.02 GiB (22%)
Title                                    : French DTS 1509kbps
Language                                 : French
Default                                  : No
Forced                                   : No


Download:
Share Online | Rapidgator.net Share Online | Rapidgator.netShare Online | Rapidgator.netShare Online | Rapidgator.net
 

Kommentare