SUPPORT HD-AREA

Filmwünsche können bei uns im Forum abgegeben werden

Wir Speichern Nicht




 
 
 
Top Releases
Sully.2016.German.Dubbed.Atm...
The.Autopsy.of.Jane.Doe.2016...
The.Autopsy.of.Jane.Doe.2016...
Miles.Ahead.2015.German.1080...
The.Autopsy.of.Jane.Doe.2016...
Dark.Web.Kontrolle.ist.eine....
Born.to.Be.Blue.2015.German....
Dark.Web.Kontrolle.ist.eine....
Ghost.in.the.Shell.The.New.M...
Ghost.in.the.Shell.The.New.M...

Cinedubs
Casino.Undercover.2017.Germa...
Casino.Undercover.2017.Germa...
What.Happened.to.Monday.2017...
What.Happened.to.Monday.2017...
Planet.der.Affen.Survival.20...
Planet.der.Affen.Survival.20...
Cars.3.2017.GERMAN.DL.MD.108...
Cars.3.2017.GERMAN.DL.MD.720...
Atomic.Blonde.German.AC3.Dub...
Atomic.Blonde.German.AC3.Dub...

Neuerscheinungen 2016-17
Maschinenland.Mankind.Down.2...
Maschinenland.Mankind.Down.2...
Maschinenland.Mankind.Down.2...
Mein.neues.bestes.Stueck.Ger...
Mein.neues.bestes.Stueck.Ger...
USS.Indianapolis.Men.of.Cour...
Ueberflieger.German.DL.720p....
Ueberflieger.German.DL.1080p...
Girls.United.Der.grosse.Show...
Girls.United.Der.grosse.Show...

XXX
BabyGotBoobs.17.10.13.Cassid...
ATKGirlfriends.17.10.12.Elen...
AussiePOV.17.03.23.Sierra.Kn...
Analized.17.10.16.Sarah.Vand...
BangBus.17.10.11.Sloan.Harpe...
1By-Day.17.10.11.Isabella.Ch...
AllOver30.17.10.11.Sunny.XXX...
AussiePOV.17.04.06.Contessa....
AllInternal.17.10.12.Rebecca...
Analyzed.Teens.XXX.1080p.WEB...
BadDaddyPOV.17.10.13.Alexis....
AussiePOV.17.03.02.Maddison....
Analized.17.10.11.Dahlia.Sky...
BoobDay.17.10.13.Sienna.Day....
BLACKED.17.10.12.Evelin.Ston...
21Naturals.17.10.15.Amirah.A...
Bang.Europe.57.XXX.1080p.WEB...
AllGirlMassage.17.10.16.Bret...
BoundGangBangs.17.10.09.Mari...
BigNaturals.17.10.11.Anya.Iv...

3D
Patagonia.3D.Auf.den.Spuren....
Pirates.of.the.Caribbean.Sal...
Transformers.The.Last.Knight...
Faszination.Island.Das.Parad...
The.Final.Destination.4.3D.2...
The.Warriors.Gate.3D.2016.DU...
Wonder.Woman.3D.2017.MULTI.C...
Tutanchamun.3D.2012.COMPLETE...
Wonder.Woman.3D.HSBS.2017.Ge...
Wonder.Woman.3D.HOU.2017.Ger...
Pirates.of.the.Caribbean.Sal...
Pirates.of.the.Caribbean.Sal...
Die.Mumie.3D.2017.MULTi.COMP...
Wickie.auf.grosser.Fahrt.3D....
Die.Mumie.3D.HSBS.2017.Germa...

Old_Stuff
Die.Olsenbande.sieht.rot.197...
Olsenbande.steigt.aufs.Dach....
Malcolm.mittendrin.S05.Germa...
Malcolm.mittendrin.S04.Germa...
Life.of.Pi.2012.German.DTS.D...
Rest.Stop.Dont.Look.Back.UNC...
Koenig.der.Loewen.3D.German....
Schuesse.im.Dreiviertel.Takt...
Airwolf.S02.DUAL.BLURAY.COMP...
Don.2.The.King.is.Back.2011....
Prison.Break.S04.Complete.Ge...
Prison.Break.S03.Complete.Ge...
Tuerkisch.fuer.Anfaenger.S03...
Geraubte.Kuesse.1968.DUAL.CO...
Prison.Break.S02.COMPLETE.20...

Musik
The.Beatles.Sgt.Peppers.Lone...
The.Prometheus.Dolby.Atmos.E...
R.E.M.OUT.OF.TIME.25th.Anniv...
The.Rolling.Stones.GRRR.BR-A...
Mussorgsky.Bilder.einer.Auss...
Yes.-.The.Yes.Album.Bluray-A...
Carlos.Heredia.Gypsy.Flamenc...
SPES.2014.complete.Bluray.un...
Carlos.Santana.Collection.19...
Pink.Floyd.The.Endless.River...
The.Hyperion.Romantic.Piano....
Putumayo.113.CD.Flac.lossles...

Filme
Garten.des.Boesen.Garden.of....
Polina.2016.DUAL.COMPLETE.BL...
Alles.Unter.Kontrolle.2016.D...
Pettersson.und.Findus.Kleine...
Die.Farbe.Lila.1985.German.D...
Die.Kroete.1978.German.DL.10...
Der.Superfighter.AKA.Project...
Der.Superfighter.AKA.Project...
Interview.mit.eine.Vampir.19...
Prison.Break.S05.COMPLETE.Ge...
Berlin.Station.S02.German.10...
Berlin.Station.S02.German.72...
The.Quest.Die.Serie.S03.Germ...
The.Quest.Die.Serie.S03.Germ...
The.Deuce.S01.German.DL.DUBB...
The.Deuce.S01.German.DL.DUBB...
Designated.Survivor.S02.Germ...
Designated.Survivor.S02.Germ...
Fear.The.Walking.Dead.S03.CO...
Captain.Underpants.The.First...
2.Broke.Girls.S06.GERMAN.DUB...
2.Broke.Girls.S06.GERMAN.DUB...
Kevin.Can.Wait.S02.German.10...
Kevin.Can.Wait.S02.German.72...

 
 
Klass.2007.German.AC3D.DL.1080p.BluRay.x264-msd
Jahr: 2007
Genre: Drama
Sprache: Deutsch AC3 | Englisch AC3
Laufzeit: 1h 37mn
Bitrate: 12.4 Mbps
Format: MKV
Größe: 8.49 GiB
Release:

Beschreibung:

Egal ob in den Pausen auf dem Schulhof, beim Sportunterricht in der Turnhalle oder zwischen den Stunden im Klassenraum - Joosep ist nirgendwo sicher. Ständig wird er von seinen Mitschülern gehänselt und verspottet, geschlagen und getreten, und niemand scheint etwas dagegen unternehmen zu wollen. Niemand außer Kaspar, der sich für den Außenseiter einsetzt und der dafür schon bald selber Prügel einstecken muss. Und schließlich sieht Joosep nur noch einen einzigen Weg, um die ständigen Demütigungen zu beenden...



General
Unique ID                                : 222650482712813819266242272325152459416 (0xA780EC55739CA24F8D6402769C66CA98)
Complete name                            : Klass.2007.German.AC3D.DL.1080p.BluRay.x264-msd.mkv
Format                                   : Matroska
Format version                           : Version 2
File size                                : 8.49 GiB
Duration                                 : 1h 37mn
Overall bit rate mode                    : Variable
Overall bit rate                         : 12.4 Mbps
Movie name                               : Encoded msdHDA
Encoded date                             : UTC 2012-11-12 03:27:45
Writing application                      : mkvmerge v5.8.0 ('No Sleep / Pillow') built on Sep  2 2012 15:37:04
Writing library                          : libebml v1.2.3 + libmatroska v1.3.0

Video
ID                                       : 1
Format                                   : AVC
Format/Info                              : Advanced Video Codec
Format profile                           : High@L4.1
Format settings, CABAC                   : Yes
Format settings, ReFrames                : 4 frames
Codec ID                                 : V_MPEG4/ISO/AVC
Duration                                 : 1h 37mn
Bit rate mode                            : Variable
Bit rate                                 : 11.3 Mbps
Nominal bit rate                         : 12.0 Mbps
Maximum bit rate                         : 14.0 Mbps
Width                                    : 1 920 pixels
Height                                   : 1 080 pixels
Display aspect ratio                     : 16:9
Frame rate mode                          : Constant
Frame rate                               : 25.000 fps
Color space                              : YUV
Chroma subsampling                       : 4:2:0
Bit depth                                : 8 bits
Scan type                                : Progressive
Bits/(Pixel*Frame)                       : 0.219
Stream size                              : 7.73 GiB (91%)
Writing library                          : x264 core 78 r1309M 4d77de8
Encoding settings                        : cabac=1 / ref=4 / deblock=1:0:0 / analyse=0x3:0x12 / me=dia / subme=2 / psy=1 / psy_rd=0.0:0.0 / mixed_ref=0 / me_range=16 / chroma_me=1 / trellis=0 / 8x8dct=1 / cqm=0 / deadzone=21,11 / chroma_qp_offset=0 / threads=12 / nr=0 / decimate=1 / mbaff=0 / constrained_intra=0 / bframes=3 / b_pyramid=0 / b_adapt=1 / b_bias=0 / direct=1 / wpredb=1 / keyint=50 / keyint_min=8 / scenecut=40 / rc_lookahead=50 / rc=cbr / mbtree=0 / bitrate=12000 / ratetol=1.0 / qcomp=0.50 / qpmin=10 / qpmax=51 / qpstep=4 / vbv_maxrate=14000 / vbv_bufsize=14500 / ip_ratio=1.10 / pb_ratio=1.10 / aq=1:1.00
Default                                  : Yes
Forced                                   : No

Audio #1
ID                                       : 2
Format                                   : AC-3
Format/Info                              : Audio Coding 3
Mode extension                           : CM (complete main)
Format settings, Endianness              : Big
Codec ID                                 : A_AC3
Duration                                 : 1h 37mn
Bit rate mode                            : Constant
Bit rate                                 : 640 Kbps
Channel(s)                               : 6 channels
Channel positions                        : Front: L C R, Side: L R, LFE
Sampling rate                            : 48.0 KHz
Bit depth                                : 16 bits
Compression mode                         : Lossy
Stream size                              : 447 MiB (5%)
Language                                 : Estonian
Default                                  : No
Forced                                   : No

Audio #2
ID                                       : 3
Format                                   : AC-3
Format/Info                              : Audio Coding 3
Mode extension                           : CM (complete main)
Format settings, Endianness              : Big
Codec ID                                 : A_AC3
Duration                                 : 1h 37mn
Bit rate mode                            : Constant
Bit rate                                 : 224 Kbps
Channel(s)                               : 2 channels
Channel positions                        : Front: L R
Sampling rate                            : 48.0 KHz
Bit depth                                : 16 bits
Compression mode                         : Lossy
Stream size                              : 156 MiB (2%)
Language                                 : German
Default                                  : Yes
Forced                                   : No

Text
ID                                       : 4
Format                                   : UTF-8
Codec ID                                 : S_TEXT/UTF8
Codec ID/Info                            : UTF-8 Plain Text
Language                                 : English
Default                                  : No
Forced                                   : No


Download:
Share Online | Rapidgator.net Share Online | Rapidgator.netShare Online | Rapidgator.netShare Online | Rapidgator.net
 

Kommentare