DNS SERVER AENDERNum der staatlichen Zensur zu umgehen. Sollten wir von eurem Provider geseprrt werden, nutzt den TOR BROWSER oder ändert euren DNS SERVER.

Filmwünsche können bei uns im Forum abgegeben werden

Wir Speichern Nicht




 
 
 
Top Releases
Your.Name.German.DL.1080p.Bl...
Your.Name.Gestern.heute.und....
Mr.Church.2016.German.DL.AC3...
Mr.Church.2016.German.DL.AC3...
Red.Sparrow.2018.German.DL.A...
Wunder.2017.MULTI.COMPLETE.B...
Der.andere.Liebhaber.2017.MU...
Hands.of.Stone.Faeuste.aus.S...
Rogue.One.A.Star.Wars.Story....
The.Salesman.2016.German.AC3...

Cinedubs
Pacific.Rim.2.Uprising.Germa...
Pacific.Rim.2.Uprising.Germa...
Feinde.Hostiles.German.DL.AC...
Feinde.Hostiles.German.DL.AC...
Renegades.German.AC3MD.DL.10...
Renegades.German.AC3MD.DL.72...
Jawbone.German.DL.AC3.Dubbed...
Jawbone.German.DL.AC3.Dubbed...
Das.ist.erst.der.Anfang.Germ...
Das.ist.erst.der.Anfang.Germ...

Neuerscheinungen 2017-18
Havenhurst.2016.German.1080p...
Havenhurst.2016.German.720p....
Havenhurst.2016.German.DL.10...
Havenhurst.2016.DUAL.COMPLET...
Fifty.Shades.of.Grey.Befreit...
Ausloeschung.2018.German.AC3...
Ausloeschung.2018.German.AC3...
Bullyparade.Der.Film.2017.Ge...
Bullyparade.Der.Film.2017.Ge...
Cargo.2017.German.Dubbed.DL....

XXX
RydenArmani.17.07.26.Cotton....
TheLifeErotic.18.03.16.Maari...
Throated.18.03.16.Anna.De.Vi...
RydenArmani.18.02.03.Sweethe...
Spizoo.18.03.17.Samantha.Ron...
PrivateSociety.18.03.19.Bren...
PublicPickUps.18.03.17.Xiann...
SpyFam.18.03.19.Emily.Willis...
TheWhiteBoxxx.18.03.17.Natal...
Spizoo.18.03.21.Maxim.Law.Vs...
RodneyMoore.18.03.13.Kat.Lix...
PropertySex.18.03.16.Lily.La...
ThirdMovies.My.Moms.Dark.Sec...
RealWifeStories.18.03.20.Kay...
RydenArmani.17.12.20.Christm...
PublicAgent.18.03.20.Dayana....
TheLifeErotic.18.03.18.Layla...
RydenArmani.17.11.12.Anal.Pl...
RodneyMoore.18.03.14.Lindy.L...
RydenArmani.17.10.07.Wednesd...

3D
Zombies.Ueberlebe.die.Untote...
Norwegen.3D.2013.GERMAN.DL.D...
Norwegen.3D.2013.GERMAN.DOKU...
Jumanji.Willkommen.im.Dschun...
Jumanji.Welcome.To.The.Jungl...
Abraham.Lincoln.Vampire.Hunt...
Norwegen.3D.2013.MULTi.COMPL...
Star.Wars.Episode.VIII.Die.l...
Star.Wars.Episode.VIII.Die.l...
Star.Wars.Episode.VIII.Die.l...
Jumanji.Welcome.To.The.Jungl...
Star.Wars.The.Last.Jedi.2017...
Final.Storm.Der.Untergang.de...
Final.Storm.Der.Untergang.de...
Jumanji.Willkommen.im.Dschun...

Old_Stuff
Zeit.der.Zaertlichkeit.1983....
Zeit.der.Zaertlichkeit.1983....
Regular.Show.S01.1080p.BluRa...
Ostfriesisch.fuer.Anfaenger....
Planet.der.Affen.Prevolution...
Final.Fantasy.VII.Advent.Chi...
City.Slickers.2.1994.German....
R.I.P.D.Rest.in.Peace.Depart...
The.Hornets.Nest.2014.LIMITE...
Korengal.2014.DOCU.1080p.Blu...
The.Transporter.Refueled.201...
Transporter.3.2008.DUAL.COMP...
Transporter.The.Mission.DC.2...
Transporter.2002.DUAL.COMPLE...
Am.gruenen.Rand.der.Welt.Far...

Filme
Patrouillenboot.PT.109.1963....
Nina.2016.German.DL.1080p.Bl...
The.Quest.Die.Serie.S03.DUAL...
Assault.on.Precinct.13.-.Ans...
MotoGP.Moto2.Moto3.Saison.20...
MotoGP.Moto2.Moto3.Saison.20...
Irre.sind.maennlich.German.1...
Irre.sind.maennlich.2014.Ger...
Tapeheads.-.Verrueckt.auf.Vi...
Aus.dem.Nichts.2017.German.1...
Der.Hobbit.Die.Schlacht.Der....
Letters.From.Iwo.Jima.2006.M...
Shameless.US.S07D01+2.DUAL.C...
Meine.Stiefmutter.ist.ein.Al...
Harold.und.Kumar.2.Flucht.au...
127.Hours.2010.German.AC3.DL...
Indiana.Jones.Jaeger.des.ver...
Atemlos.Gefaehrliche.Wahrhei...
Charleston.Zwei.Faeuste.raeu...
Charleston.Zwei.Faeuste.raeu...
Der.Pakt.der.Woelfe.DC.2001....
Oceans.Eleven.Open.Matte.200...
Extreme.Ops.2002.German.DL.A...
Suspect.-.Unter.Verdacht.198...

 
 
Star.Trek.Discovery.S01.COMPLETE.GERMAN.DUBBED.DL.720p.WebHD.x264-TVP
Jahr: 2017
Genre: Sci-Fi
Sprache: Deutsch AC3 | Englisch AC3
Laufzeit: 43min je Folge
Bitrate: 2800 Kbps
Format: MKV
Größe: 1,1 GB je Folge
Release:

Beschreibung:

Neue „Star Trek“-Serie, die in der originalen Zeitlinie etwa zehn Jahre vor den Weltraum-Abenteuern von Captain Kirk und seiner Crew des Raumschiffs Enterprise angesiedelt ist. Im Mittelpunkt der Handlung steht Michael Burnham (Sonequa Martin-Green), die als erster Mensch überhaupt eine Ausbildung im Vulkanischen Lernzentrum und der Vulkanischen Wissenschaftsakademie genoss und so auch eine besondere Verbindung zu Spocks Vater Sarek (James Frain) hat. Burnham ist als Erste Offizierin Mitglied der Crew der USS Shenzhou unter dem Kommando von Captain Philippa Georgiou (Michelle Yeoh). Nach einer fatalen Entscheidung, die weitreichende Konsequenzen für die gesamte Föderation hat, landet Burnham jedoch auf der USS Discovery, die von Gabriel Lorca (Jason Isaacs) befehligt wird.

 

enthaltene Folgen (Staffel komplett):

Star.Trek.Discovery.S01E01.Das.vulkanische.Hallo.GERMAN.DUBBED.DL.720p.WebHD.x264.iNTERNAL-TVP 

Star.Trek.Discovery.S01E02.Kampf.beim.Doppelstern.GERMAN.DUBBED.DL.720p.WebHD.x264-TVP

Star.Trek.Discovery.S01E03.Context.is.for.Kings.GERMAN.DUBBED.DL.720p.WebHD.x264-TVP

Star.Trek.Discovery.S01E04.The.Butchers.Knife.Cares.Not.For.The.Lambs.Cry.GERMAN.DUBBED.DL.720p.WebHD.x264-TVP

Star.Trek.Discovery.S01E05.Waehle.deinen.Schmerz.GERMAN.DUBBED.DL.720p.WebHD.x264-TVP

Star.Trek.Discovery.S01E06.Lethe.GERMAN.DUBBED.DL.720p.WebHD.x264-TVP

Star.Trek.Discovery.S01E07.Magic.to.Make.the.Sanest.Man.Go.Mad.GERMAN.DUBBED.DL.720p.WebHD.x264-TVP

Star.Trek.Discovery.S01E08.Si.Vis.Pacem.Para.Bellum.GERMAN.DUBBED.DL.720p.WebHD.x264-TVP

Star.Trek.Discovery.S01E09.Algorithmus.GERMAN.DUBBED.DL.720p.WebHD.x264-TVP

Star.Trek.Discovery.S01E10.Despite.Yourself.GERMAN.DUBBED.DL.720p.WebHD.x264-TVP

Star.Trek.Discovery.S01E11.German.Dubbed.DL.720p.WEBRip.x264-BiGiNT 

Star.Trek.Discovery.S01E12.Blindes.Verlangen.GERMAN.DUBBED.DL.720p.WebHD.x264.REPACK-TVP

Star.Trek.Discovery.S01E13.Auftakt.zur.Vergangenheit.GERMAN.DL.DUBBED.720p.WebHD.x264-TVP

Star.Trek.Discovery.S01E14.Flucht.nach.vorn.GERMAN.DL.DUBBED.720p.WebHD.x264-TVP

Star.Trek.Discovery.S01E15.Nimm.meine.Hand.GERMAN.DL.DUBBED.720p.WebHD.x264-TVP NEU



General
Complete name                            : Star.Trek.Discovery.S01E01.Das.vulkanische.Hallo.GERMAN.DUBBED.DL.720p.WebHD.x264.iNTERNAL-TVP\tvp-startrekdiscovery-s01e01-720p-int.mkv
Format                                   : Matroska
Format version                           : Version 4 / Version 2
File size                                : 1.13 GiB
Duration                                 : 43mn 31s
Overall bit rate                         : 3 705 Kbps
Encoded date                             : UTC 2017-09-25 10:29:08
Writing application                      : mkvmerge v9.7.1 ('Pandemonium') 64bit
Writing library                          : libebml v1.3.4 + libmatroska v1.4.5
DURATION                                 : 00:42:44.898000000
NUMBER_OF_FRAMES                         : 83
NUMBER_OF_BYTES                          : 2524
_STATISTICS_WRITING_APP                  : mkvmerge v9.7.1 ('Pandemonium') 64bit
_STATISTICS_WRITING_DATE_UTC             : 2017-09-25 10:29:08
_STATISTICS_TAGS                         : BPS DURATION NUMBER_OF_FRAMES NUMBER_OF_BYTES

Video
ID                                       : 1
Format                                   : AVC
Format/Info                              : Advanced Video Codec
Format profile                           : High@L4.1
Format settings, CABAC                   : Yes
Format settings, ReFrames                : 5 frames
Codec ID                                 : V_MPEG4/ISO/AVC
Duration                                 : 43mn 31s
Bit rate                                 : 2 864 Kbps
Width                                    : 1 280 pixels
Height                                   : 640 pixels
Display aspect ratio                     : 2.000
Frame rate mode                          : Constant
Frame rate                               : 23.976 fps
Color space                              : YUV
Chroma subsampling                       : 4:2:0
Bit depth                                : 8 bits
Scan type                                : Progressive
Bits/(Pixel*Frame)                       : 0.146
Stream size                              : 891 MiB (77%)
Writing library                          : x264 core 152 r2851 ba24899
Encoding settings                        : cabac=1 / ref=5 / deblock=1:-3:-3 / analyse=0x3:0x133 / me=umh / subme=8 / psy=1 / psy_rd=1.00:0.15 / mixed_ref=1 / me_range=16 / chroma_me=1 / trellis=2 / 8x8dct=1 / cqm=0 / deadzone=21,11 / fast_pskip=0 / chroma_qp_offset=-3 / threads=12 / lookahead_threads=2 / sliced_threads=0 / nr=0 / decimate=1 / interlaced=0 / bluray_compat=0 / constrained_intra=0 / bframes=3 / b_pyramid=2 / b_adapt=2 / b_bias=0 / direct=3 / weightb=1 / open_gop=0 / weightp=2 / keyint=240 / keyint_min=24 / scenecut=40 / intra_refresh=0 / rc_lookahead=50 / rc=crf / mbtree=1 / crf=18.0 / qcomp=0.60 / qpmin=0 / qpmax=69 / qpstep=4 / ip_ratio=1.40 / aq=1:1.00
Language                                 : German
Default                                  : Yes
Forced                                   : No
DURATION                                 : 00:42:52.070000000
NUMBER_OF_FRAMES                         : 61668
NUMBER_OF_BYTES                          : 958098061
_STATISTICS_WRITING_APP                  : mkvmerge v9.7.1 ('Pandemonium') 64bit
_STATISTICS_WRITING_DATE_UTC             : 2017-09-25 10:29:08
_STATISTICS_TAGS                         : BPS DURATION NUMBER_OF_FRAMES NUMBER_OF_BYTES

Audio #1
ID                                       : 2
Format                                   : AC-3
Format/Info                              : Audio Coding 3
Mode extension                           : CM (complete main)
Format settings, Endianness              : Big
Codec ID                                 : A_AC3
Duration                                 : 43mn 31s
Bit rate mode                            : Constant
Bit rate                                 : 384 Kbps
Channel(s)                               : 6 channels
Channel positions                        : Front: L C R, Side: L R, LFE
Sampling rate                            : 48.0 KHz
Bit depth                                : 16 bits
Compression mode                         : Lossy
Stream size                              : 120 MiB (10%)
Language                                 : German
Default                                  : Yes
Forced                                   : No

Audio #2
ID                                       : 3
Format                                   : AC-3
Format/Info                              : Audio Coding 3
Mode extension                           : CM (complete main)
Format settings, Endianness              : Big
Codec ID                                 : A_AC3
Duration                                 : 43mn 31s
Bit rate mode                            : Constant
Bit rate                                 : 384 Kbps
Channel(s)                               : 6 channels
Channel positions                        : Front: L C R, Side: L R, LFE
Sampling rate                            : 48.0 KHz
Bit depth                                : 16 bits
Compression mode                         : Lossy
Stream size                              : 120 MiB (10%)
Language                                 : English
Default                                  : No
Forced                                   : No

Text
ID                                       : 4
Format                                   : UTF-8
Codec ID                                 : S_TEXT/UTF8
Codec ID/Info                            : UTF-8 Plain Text
Language                                 : German
Default                                  : Yes
Forced                                   : Yes



Download:
Share-Online.biz Share-Online.bizShare-Online.bizShare-Online.biz | Rapidgator.net Rapidgator.netRapidgator.netRapidgator.net
 

Kommentare

  1. Geschrieben am 26. January 2018, 12:47 Uhr von R.Man · #

    Danke für den UP….leider ist bei den letzten Folgen der Ton extrem aus dem Sync….mind 2 Sekunden….:(

  2. Geschrieben am 28. January 2018, 11:09 Uhr von Tafti · #

    Das mit dem Tonversatz kann ich bestätigen.

  3. Geschrieben am 29. January 2018, 20:13 Uhr von JOK5R · #

    Dito – 1.12 ist asynchron, anfang nur kurz, später mehr.