Filmwünsche können bei uns im Forum abgegeben werden

Wir Speichern Nicht




 
 
 
Top Releases
Die.Tribute.von.Panem.Catchi...
The.Accountant.2016.German.D...
X.Men.Zukunft.ist.Vergangenh...
Promised.Land.2012.German.DL...
Oblivion.2013.German.DL.1080...
Monster.Hunt.2015.German.DL....
The.Expendables.3.2014.THEAT...
Ares-Der.letzte.seiner.Art.2...
Ares-Der.letzte.seiner.Art.2...
Thank.You.for.Bombing.2015.G...

Cinedubs
Dunkirk.2017.IMAX.German.AC3...
Dunkirk.2017.IMAX.German.AC3...
Dunkirk.2017.IMAX.German.AC3...
Schneemann.German.DL.AC3.Dub...
ES.2017.German.DL.AC3.Dubbed...
Dunkirk.2017.German.AC3MD.DL...
The.Lego.Ninjago.Movie.2017....
The.Lego.Ninjago.Movie.2017....
Mother.German.DL.AC3.Dubbed....
Mother.German.DL.AC3.Dubbed....

Neuerscheinungen 2016-17
Leatherface.2017.German.720p...
Leatherface.2017.German.DL.1...
Deep.Purple.From.Here.to.inF...
DJ.Bobo.Mystorial.Live.2017....
Maneater.Der.Tod.aus.der.Kae...
Rendel.2017.German.AC3.DL.10...
Geliebte.Schwester.2017.Germ...
Mein.Freund.der.Dino.2017.Ge...
Rico.Oskar.und.der.Diebstahl...
Haunting.at.Foster.Cabin.201...

XXX
PlayboyPlus.17.11.26.Mashup....
QuebecProductions.15.12.04.A...
PlumperPass.17.11.29.Shanice...
PornMegaLoad.17.11.28.Kora.K...
OfficeObsession.17.11.29.Sof...
PornMegaLoad.17.11.26.Tigerr...
PremiumBukkake.17.11.20.Luna...
PremiumBukkake.17.11.22.Luna...
PremiumBukkake.17.11.17.Luna...
Petite.17.11.25.Liv.Revamped...
NuruMassage.17.12.01.Raven.H...
PlumperPass.17.12.01.Kat.Bai...
PixAndVideo.17.12.01.Kiara.N...
PornMegaLoad.17.11.27.Kandi....
PlayboyPlus.17.12.03.Mashup....
PremiumBukkake.17.10.04.Tina...
QuebecProductions.15.11.27.A...
PornFidelity.E718.Anna.Bell....
Nubiles.17.12.03.Roxy.Romero...
OldYoungLesbianLove.17.11.27...

3D
Walhalla.Rising.3D.2009.Germ...
Spider.Man.Homecoming.3D.Ger...
Valerian.Die.Stadt.der.tause...
Valerian.Die.Stadt.der.tause...
Valerian.Die.Stadt.der.tause...
Valerian.Die.Stadt.der.tause...
Warcraft.The.Beginning.3D.HS...
Transformers.The.Last.Knight...
Warcraft.The.Beginning.3D.HO...
Die.Schneekoenigin.3.Feuer.u...
Die.Schneekoenigin.3.Feuer.u...
Terra.X.Dracula.-.Die.wahre....
Abenteuer.Safari.3D.Safari.P...
Die.Schneekoenigin.3.3D.2016...
Spider.Man.Homecoming.3D.201...

Old_Stuff
Hana-bi.Feuerblume.1997.Germ...
Memphis.Belle.1990.German.DL...
Im.Schatten.des.Mondes.Germa...
Tomb.Raider.2001.DUAL.COMPLE...
Tomb.Raider.Die.Wiege.des.Le...
Party.Animals.3.German.AC3.7...
The.Rocky.Horror.Picture.Sho...
Die.Fliege.1986.German.DTS.1...
Mimic.2.2001.German.DD5.1D.D...
The.Tournament.UNCUT.2009.Ge...
Dr.House.S08.German.720p.Blu...
Dr.House.S07.German.720p.Blu...
Dr.House.S06.German.720p.Blu...
Dr.House.S05.German.720p.Blu...
Dr.House.S04.German.720p.Blu...

Musik
Remote.Galaxy.by.Flint.Juven...
Trondheim.Solistene.Souvenir...
The.Beatles.Sgt.Peppers.Lone...
The.Prometheus.Dolby.Atmos.E...
R.E.M.OUT.OF.TIME.25th.Anniv...
The.Rolling.Stones.GRRR.BR-A...
Mussorgsky.Bilder.einer.Auss...
Yes.-.The.Yes.Album.Bluray-A...
Carlos.Heredia.Gypsy.Flamenc...
SPES.2014.complete.Bluray.un...
Carlos.Santana.Collection.19...
Pink.Floyd.The.Endless.River...
The.Hyperion.Romantic.Piano....
Putumayo.113.CD.Flac.lossles...
UFO.Let.It.Roll.Limited.Edit...

Filme
Mimzy.Meine.Freundin.aus.der...
Supernatural.S11.COMPLETE.Ge...
No.Problem.2010.German.1080p...
Land.of.the.Dead.2K.Remaster...
Ray.Donovan.S05.GERMAN.DUBBE...
Ray.Donovan.S05.GERMAN.DUBBE...
No.Saints.For.Sinners.2011.G...
Supernatural.S12.GERMAN.DUBB...
Supernatural.S12.GERMAN.DUBB...
North.and.South.Die.Schlacht...
North.and.South.Die.Schlacht...
A.Single.Man.German.2009.DL....
A.Touch.of.Sin.2013.German.A...
Express.in.die.Hoelle.1985.G...
Family.For.Christmas.2015.Ge...
A.Star.Is.Born.1976.German.D...
A.Christmas.Carol.Die.drei.W...
A.Single.Shot.2013.German.DL...
Hubert.und.Staller.S06D01-4....
The.Keeper.2009.iNTERNAL.MUL...
To.Wong.Foo.Thanks.for.Every...
Express.in.die.Hoelle.1985.G...
Express.in.die.Hoelle.1985.G...
The.Walking.Dead.S08.GERMAN....

 
 
Gregs.Tagebuch.Boese.Falle.2017.German.720p.BluRay.x264-ENCOUNTERS
Jahr: 2017
Genre: Komödie | Drama
Sprache: Deutsch DTS
Laufzeit: 1h 31mn
Bitrate: 3 394 Kbps
Format: MKV
Größe: 2.17 GiB
Release:

Beschreibung:

Nein, wie öde! Greg (Jason Ian Drucker) muss mit seiner Familie auf einen Roadtrip quer durch die USA, der mehrere Tage dauern wird. Ziel des Ausflugs ist das Haus von Oma, wo zu deren 90. Geburtstag eine große Feier stattfinden soll. Dass seine Eltern (Alicia Silverstone, Tom Everett Scott) ihm die Reise als „ganz tolles gemeinsames Abenteuer der Familie Heffley“ schmackhaft machen wollen, macht die ganze Angelegenheit nur noch suspekter. Doch was als Inbegriff der Langeweile beginnt, entpuppt sich schnell als perfekte Gelegenheit für einen besonderen Abstecher, denn bei ihrer Reise kommen sie ganz in die Nähe einer coolen Videospiele-Messe. Greg muss da hin! Und so schummelt er mit seinem Bruder Rodrick (Charlie Wright) kurzerhand einen kleinen Umweg in die Reiseroute, der die Familie schnell in das absolute Chaos stürzt…



Unique ID                                : 230275555492321890419912308955737105271 (0xAD3D75727EBF89A392C54017D20A2377)
Complete name                            : encounters-grtabofa_720p.mkv
Format                                   : Matroska
Format version                           : Version 4 / Version 2
File size                                : 2.17 GiB
Duration                                 : 1h 31mn
Overall bit rate                         : 3 394 Kbps
Encoded date                             : UTC 2017-10-10 14:54:55
Writing application                      : mkvmerge v14.0.0 ('Flow') 64bit
Writing library                          : libebml v1.3.4 + libmatroska v1.4.5
DURATION                                 : 01:24:16.051000000
NUMBER_OF_FRAMES                         : 17
NUMBER_OF_BYTES                          : 479
_STATISTICS_WRITING_APP                  : mkvmerge v14.0.0 ('Flow') 64bit
_STATISTICS_WRITING_DATE_UTC             : 2017-10-10 14:54:55
_STATISTICS_TAGS                         : BPS DURATION NUMBER_OF_FRAMES NUMBER_OF_BYTES

Video
ID                                       : 1
Format                                   : AVC
Format/Info                              : Advanced Video Codec
Format profile                           : High@L4.1
Format settings, CABAC                   : Yes
Format settings, ReFrames                : 5 frames
Codec ID                                 : V_MPEG4/ISO/AVC
Duration                                 : 1h 31mn
Bit rate                                 : 2 559 Kbps
Width                                    : 1 280 pixels
Height                                   : 536 pixels
Display aspect ratio                     : 2.40:1
Frame rate mode                          : Constant
Frame rate                               : 23.976 fps
Color space                              : YUV
Chroma subsampling                       : 4:2:0
Bit depth                                : 8 bits
Scan type                                : Progressive
Bits/(Pixel*Frame)                       : 0.156
Stream size                              : 1.63 GiB (75%)
Writing library                          : x264 core 152 r2851 ba24899
Encoding settings                        : cabac=1 / ref=5 / deblock=1:-1:-1 / analyse=0x3:0x133 / me=umh / subme=7 / psy=1 / psy_rd=1.00:0.15 / mixed_ref=1 / me_range=16 / chroma_me=1 / trellis=1 / 8x8dct=1 / cqm=0 / deadzone=21,11 / fast_pskip=0 / chroma_qp_offset=-3 / threads=16 / lookahead_threads=2 / sliced_threads=0 / nr=0 / decimate=1 / interlaced=0 / bluray_compat=0 / constrained_intra=0 / bframes=3 / b_pyramid=2 / b_adapt=1 / b_bias=0 / direct=1 / weightb=1 / open_gop=0 / weightp=2 / keyint=250 / keyint_min=23 / scenecut=40 / intra_refresh=0 / rc_lookahead=40 / rc=crf / mbtree=1 / crf=20.0 / qcomp=0.60 / qpmin=0 / qpmax=69 / qpstep=4 / ip_ratio=1.40 / aq=1:1.00
Default                                  : Yes
Forced                                   : No

Audio
ID                                       : 2
Format                                   : DTS
Format/Info                              : Digital Theater Systems
Mode                                     : 16
Format settings, Endianness              : Big
Codec ID                                 : A_DTS
Duration                                 : 1h 31mn
Bit rate mode                            : Constant
Bit rate                                 : 768 Kbps
Channel(s)                               : 6 channels
Channel positions                        : Front: L C R, Side: L R, LFE
Sampling rate                            : 48.0 KHz
Bit depth                                : 24 bits
Compression mode                         : Lossy
Stream size                              : 502 MiB (23%)
Language                                 : German
Default                                  : Yes
Forced                                   : No

Text
ID                                       : 3
Format                                   : UTF-8
Codec ID                                 : S_TEXT/UTF8
Codec ID/Info                            : UTF-8 Plain Text
Language                                 : German
Default                                  : Yes
Forced                                   : Yes


Download:
Share Online Share OnlineShare OnlineShare Online
 

Kommentare