Filmwünsche können bei uns im Forum abgegeben werden

Wir Speichern Nicht




 
 
 
Top Releases
Die.Tribute.von.Panem.Catchi...
The.Accountant.2016.German.D...
X.Men.Zukunft.ist.Vergangenh...
Promised.Land.2012.German.DL...
Oblivion.2013.German.DL.1080...
Monster.Hunt.2015.German.DL....
The.Expendables.3.2014.THEAT...
Ares-Der.letzte.seiner.Art.2...
Ares-Der.letzte.seiner.Art.2...
Thank.You.for.Bombing.2015.G...

Cinedubs
Dunkirk.2017.IMAX.German.AC3...
Dunkirk.2017.IMAX.German.AC3...
Dunkirk.2017.IMAX.German.AC3...
Schneemann.German.DL.AC3.Dub...
ES.2017.German.DL.AC3.Dubbed...
Dunkirk.2017.German.AC3MD.DL...
The.Lego.Ninjago.Movie.2017....
The.Lego.Ninjago.Movie.2017....
Mother.German.DL.AC3.Dubbed....
Mother.German.DL.AC3.Dubbed....

Neuerscheinungen 2016-17
Leatherface.2017.German.720p...
Leatherface.2017.German.DL.1...
Deep.Purple.From.Here.to.inF...
DJ.Bobo.Mystorial.Live.2017....
Maneater.Der.Tod.aus.der.Kae...
Rendel.2017.German.AC3.DL.10...
Geliebte.Schwester.2017.Germ...
Mein.Freund.der.Dino.2017.Ge...
Rico.Oskar.und.der.Diebstahl...
Haunting.at.Foster.Cabin.201...

XXX
PlayboyPlus.17.11.26.Mashup....
QuebecProductions.15.12.04.A...
PlumperPass.17.11.29.Shanice...
PornMegaLoad.17.11.28.Kora.K...
OfficeObsession.17.11.29.Sof...
PornMegaLoad.17.11.26.Tigerr...
PremiumBukkake.17.11.20.Luna...
PremiumBukkake.17.11.22.Luna...
PremiumBukkake.17.11.17.Luna...
Petite.17.11.25.Liv.Revamped...
NuruMassage.17.12.01.Raven.H...
PlumperPass.17.12.01.Kat.Bai...
PixAndVideo.17.12.01.Kiara.N...
PornMegaLoad.17.11.27.Kandi....
PlayboyPlus.17.12.03.Mashup....
PremiumBukkake.17.10.04.Tina...
QuebecProductions.15.11.27.A...
PornFidelity.E718.Anna.Bell....
Nubiles.17.12.03.Roxy.Romero...
OldYoungLesbianLove.17.11.27...

3D
Walhalla.Rising.3D.2009.Germ...
Spider.Man.Homecoming.3D.Ger...
Valerian.Die.Stadt.der.tause...
Valerian.Die.Stadt.der.tause...
Valerian.Die.Stadt.der.tause...
Valerian.Die.Stadt.der.tause...
Warcraft.The.Beginning.3D.HS...
Transformers.The.Last.Knight...
Warcraft.The.Beginning.3D.HO...
Die.Schneekoenigin.3.Feuer.u...
Die.Schneekoenigin.3.Feuer.u...
Terra.X.Dracula.-.Die.wahre....
Abenteuer.Safari.3D.Safari.P...
Die.Schneekoenigin.3.3D.2016...
Spider.Man.Homecoming.3D.201...

Old_Stuff
Hana-bi.Feuerblume.1997.Germ...
Memphis.Belle.1990.German.DL...
Im.Schatten.des.Mondes.Germa...
Tomb.Raider.2001.DUAL.COMPLE...
Tomb.Raider.Die.Wiege.des.Le...
Party.Animals.3.German.AC3.7...
The.Rocky.Horror.Picture.Sho...
Die.Fliege.1986.German.DTS.1...
Mimic.2.2001.German.DD5.1D.D...
The.Tournament.UNCUT.2009.Ge...
Dr.House.S08.German.720p.Blu...
Dr.House.S07.German.720p.Blu...
Dr.House.S06.German.720p.Blu...
Dr.House.S05.German.720p.Blu...
Dr.House.S04.German.720p.Blu...

Musik
Remote.Galaxy.by.Flint.Juven...
Trondheim.Solistene.Souvenir...
The.Beatles.Sgt.Peppers.Lone...
The.Prometheus.Dolby.Atmos.E...
R.E.M.OUT.OF.TIME.25th.Anniv...
The.Rolling.Stones.GRRR.BR-A...
Mussorgsky.Bilder.einer.Auss...
Yes.-.The.Yes.Album.Bluray-A...
Carlos.Heredia.Gypsy.Flamenc...
SPES.2014.complete.Bluray.un...
Carlos.Santana.Collection.19...
Pink.Floyd.The.Endless.River...
The.Hyperion.Romantic.Piano....
Putumayo.113.CD.Flac.lossles...
UFO.Let.It.Roll.Limited.Edit...

Filme
Mimzy.Meine.Freundin.aus.der...
Supernatural.S11.COMPLETE.Ge...
No.Problem.2010.German.1080p...
Land.of.the.Dead.2K.Remaster...
Ray.Donovan.S05.GERMAN.DUBBE...
Ray.Donovan.S05.GERMAN.DUBBE...
No.Saints.For.Sinners.2011.G...
Supernatural.S12.GERMAN.DUBB...
Supernatural.S12.GERMAN.DUBB...
North.and.South.Die.Schlacht...
North.and.South.Die.Schlacht...
A.Single.Man.German.2009.DL....
A.Touch.of.Sin.2013.German.A...
Express.in.die.Hoelle.1985.G...
Family.For.Christmas.2015.Ge...
A.Star.Is.Born.1976.German.D...
A.Christmas.Carol.Die.drei.W...
A.Single.Shot.2013.German.DL...
Hubert.und.Staller.S06D01-4....
The.Keeper.2009.iNTERNAL.MUL...
To.Wong.Foo.Thanks.for.Every...
Express.in.die.Hoelle.1985.G...
Express.in.die.Hoelle.1985.G...
The.Walking.Dead.S08.GERMAN....

 
 
To.Kill.a.Man.Kein.Weg.zurueck.2016.German.DTS.DL.1080p.BluRay.x265-UNFIrED
Jahr: 2016
Genre: Thriller
Sprache: Deutsch DTS | Englisch DTS
Laufzeit: 1h 37mn
Bitrate: 4 913 Kbps
Format: MKV
Größe: 3.33 GiB
Release:

Beschreibung:
Der eigentlich sehr liebenswerte Jura-Student Harper (Tye Sheridan) hegt den Verdacht, dass sein Stiefvater Vincent (Stephen Moyer) für den Autounfall seiner Mutter verantwortlich ist, wegen dem sie nun im Koma liegt. Als er sich eines Tages in einer Bar volllaufen lässt, lernt er dort Johnny Ray (Emory Cohen) und dessen Freundin Cherry (Bel Powley) kennen. Johnny bietet an, sich um Harpers ungeliebten Stiefvater zu kümmern und Harper stimmt im Rausch zu, doch am nächsten Morgen kann er sich an nichts erinnern. Doch dann stehen Johnny und Cherry vor seiner Tür und bestehen nachdrücklich darauf, den geplanten Mord auch in die Tat umzusetzen. Harper bleibt nichts anderes übrig, als sich dem Killerpärchen auf der Fahrt nach Las Vegas anzuschließen, wo sein Stiefvater einen Geschäftstermin hat…
x265


Unique ID                                : 223497491225862726912510136839588531335 (0xA8240D13E3920EFF9AAE69392A83CC87)
Complete name                            : unfired-tokillaman-x265.mkv
Format                                   : Matroska
Format version                           : Version 2
File size                                : 3.33 GiB
Duration                                 : 1h 37mn
Overall bit rate                         : 4 913 Kbps
Encoded date                             : UTC 2017-10-11 04:06:41
Writing application                      : mkvmerge v15.0.0 ('Duel with the Devil') 64-bit
Writing library                          : libebml v1.3.5 + libmatroska v1.4.5
DURATION                                 : 01:30:51.363000000
NUMBER_OF_FRAMES                         : 1924
NUMBER_OF_BYTES                          : 23345628
_STATISTICS_WRITING_APP                  : mkvmerge v15.0.0 ('Duel with the Devil') 64-bit
_STATISTICS_WRITING_DATE_UTC             : 2017-10-11 04:06:41
_STATISTICS_TAGS                         : BPS DURATION NUMBER_OF_FRAMES NUMBER_OF_BYTES

Video
ID                                       : 1
Format                                   : HEVC
Format/Info                              : High Efficiency Video Coding
Format profile                           : Main@L4.0
Codec ID                                 : V_MPEGH/ISO/HEVC
Duration                                 : 1h 37mn
Bit rate                                 : 1 797 Kbps
Width                                    : 1 920 pixels
Height                                   : 800 pixels
Display aspect ratio                     : 2.40:1
Frame rate mode                          : Constant
Frame rate                               : 23.976 fps
Color space                              : YUV
Chroma subsampling                       : 4:2:0
Bit depth                                : 8 bits
Bits/(Pixel*Frame)                       : 0.049
Stream size                              : 1.22 GiB (37%)
Writing library                          : x265 2.5+2-18fa144d453e:[Windows][GCC 7.1.0][64 bit] 8bit+10bit+12bit
Encoding settings                        : cpuid=1050111 / frame-threads=3 / numa-pools=8 / wpp / no-pmode / no-pme / no-psnr / no-ssim / log-level=2 / input-csp=1 / input-res=1920x800 / interlace=0 / total-frames=139604 / level-idc=0 / high-tier=1 / uhd-bd=0 / ref=4 / no-allow-non-conformance / no-repeat-headers / annexb / no-aud / no-hrd / info / hash=0 / no-temporal-layers / open-gop / min-keyint=23 / keyint=250 / bframes=4 / b-adapt=2 / b-pyramid / bframe-bias=0 / rc-lookahead=25 / lookahead-slices=4 / scenecut=40 / no-intra-refresh / ctu=64 / min-cu-size=8 / rect / no-amp / max-tu-size=32 / tu-inter-depth=1 / tu-intra-depth=1 / limit-tu=0 / rdoq-level=2 / dynamic-rd=0.00 / no-ssim-rd / signhide / no-tskip / nr-intra=0 / nr-inter=0 / no-constrained-intra / strong-intra-smoothing / max-merge=3 / limit-refs=3 / limit-modes / me=3 / subme=3 / merange=57 / temporal-mvp / weightp / no-weightb / no-analyze-src-pics / deblock=0:0 / sao / no-sao-non-deblock / rd=4 / no-early-skip / rskip / no-fast-intra / no-tskip-fast / no-cu-lossless / no-b-intra / rdpenalty=0 / psy-rd=2.00 / psy-rdoq=1.00 / no-rd-refine / analysis-reuse-mode=0 / no-lossless / cbqpoffs=0 / crqpoffs=0 / rc=crf / crf=19.9 / qcomp=0.60 / qpstep=4 / stats-write=0 / stats-read=0 / ipratio=1.40 / pbratio=1.30 / aq-mode=1 / aq-strength=1.00 / cutree / zone-count=0 / no-strict-cbr / qg-size=32 / no-rc-grain / qpmax=69 / qpmin=0 / no-const-vbv / sar=1 / overscan=0 / videoformat=5 / range=0 / colorprim=2 / transfer=2 / colormatrix=2 / chromaloc=0 / display-window=0 / max-cll=0,0 / min-luma=0 / max-luma=255 / log2-max-poc-lsb=8 / vui-timing-info / vui-hrd-info / slices=1 / opt-qp-pps / opt-ref-list-length-pps / no-multi-pass-opt-rps / scenecut-bias=0.05 / no-opt-cu-delta-qp / no-aq-motion / no-hdr / no-hdr-opt / no-dhdr10-opt / analysis-reuse-level=5 / scale-factor=0 / refine-intra=0 / refine-inter=0 / refine-mv=0 / no-limit-sao / ctu-info=0
Default                                  : Yes
Forced                                   : No

Audio #1
ID                                       : 2
Format                                   : DTS
Format/Info                              : Digital Theater Systems
Mode                                     : 16
Format settings, Endianness              : Big
Codec ID                                 : A_DTS
Duration                                 : 1h 37mn
Bit rate mode                            : Constant
Bit rate                                 : 1 509 Kbps
Channel(s)                               : 6 channels
Channel positions                        : Front: L C R, Side: L R, LFE
Sampling rate                            : 48.0 KHz
Bit depth                                : 24 bits
Compression mode                         : Lossy
Stream size                              : 1.02 GiB (31%)
Language                                 : German
Default                                  : Yes
Forced                                   : No

Audio #2
ID                                       : 3
Format                                   : DTS
Format/Info                              : Digital Theater Systems
Mode                                     : 16
Format settings, Endianness              : Big
Codec ID                                 : A_DTS
Duration                                 : 1h 37mn
Bit rate mode                            : Constant
Bit rate                                 : 1 509 Kbps
Channel(s)                               : 6 channels
Channel positions                        : Front: L C R, Side: L R, LFE
Sampling rate                            : 48.0 KHz
Bit depth                                : 24 bits
Compression mode                         : Lossy
Stream size                              : 1.02 GiB (31%)
Language                                 : English
Default                                  : No
Forced                                   : No

Text
ID                                       : 4
Format                                   : PGS
Muxing mode                              : zlib
Codec ID                                 : S_HDMV/PGS
Codec ID/Info                            : The same subtitle format used on BDs/HD-DVDs
Title                                    : complete
Language                                 : German
Default                                  : No
Forced                                   : No


Download:
Share Online Share OnlineShare OnlineShare Online
 

Kommentare